&title=ユメワズライ
&artist=Cerise Bouquet
&first=0
&des=白川彩羽
&clock_count=4
&lv_5=13
&inote_5=(138)
{8},,,,,,,,,,,,,,,,,,,,,,
{32}5,6,7,8,1,2,3,4,D6/B5f/D5/E6/E5/1h[8:6],,,,,,,,
{8},,,,,,8h[8:6]/B4f/B5/B3/E3/E4,,,,,,,,7h[8:2]/B2/B3/E3f,,,,2h[8:2]/B7/B6/E7f,,,,1h[8:2]/Cf,,,1w5[12:1],,
{32}1b,B1,C,B6/B5/B4,
{16},,5,3,4,,2,,3h[8:4],,8,,8,,,,8,,6,4,7,,5,,8,,6h[8:3],,1,,,,1,,C,,,,
{8}2/7,2/7,,6h[8:1],8h[8:1],3h[8:1],1h[8:1],,C,C,
{24}E3/E7,B2/B6,B5/B1,E1/E5,,,E3/E7,B3/B7,B4/B8,E1/E5,,,
{8},7h[8:4],,6,6,,5,,4,,3,3<6[8:3],,B6,B5,B4,B3,7h[8:3],,8,8,,,1-5[8:2],2-5[8:1],,,,,B3,B4,B5,B6,7,,7h[8:2],8,,8h[8:2],,1h[8:4],,5,5,5<1[8:1]*>1[8:1],,,,,1q5[12:1]/5q1[12:1],,1<5[12:1]/5>1[12:1],,,,1pp4>5[8:5]/8qq5<4[8:5],1/8,,,,,,,,,8,8h[8:13],7,7,6,6,5,5,4,4,3,3,2,2-5[8:1],1,2,1,,1-6[12:1],1-4[12:1],,,5-8[12:1],5-2[12:1],
{8},,,,2<6[8:2],,6>2[8:2],,2-7[8:1]*-5[8:1],,,,1-7[8:1],,7-2[8:1],,2-6[8:1],,6-3[8:2],6-4[8:1],,,,,8-2[8:1]/4,,8-6[8:1]/4,,8-3[8:1]/4,,8-5[8:1]/4,,4/8,,4-8[12:1]/8-4[12:1],8/4,,,C,,5pp8[8:2],,,
{8}2pp6[8:8],,,8-4[12:1],,8,,1-5[8:1],,1,,,,6h[8:1]/3h[8:1],,2-5[8:1]*-5[8:1],1-6[8:1],,,8-3[8:1]*-3[8:1],7-4[8:1],,,,,,
{8}7,6,5h[8:5],4,3,2,1,8,7,6,5h[8:5],6,7,8,1,2,3,4,4<8[8:3],,8,8>4[8:2],4,4>4[8:4],,B7/B6/E7,B2/B3/E3,,,,,1pp4[8:14]/8-5[8:1],,8,,5bpp8[8:10]b,,,,,,,,,,,,,7,2,5/4,,6b/3b,6hb[8:1]/3hb[8:1],,
{16}7,8,1,2,,,8-5[8:1]/2-5[8:1],,,,8/2,,,,
{8}5,5v8[8:1]*v2[8:1],,5b,,1v2[8:1]/8v7[8:1],1/8,1/8,,3h[8:1],1,8b<8[16:3]b/6b>8[16:3]b,6b/8b,,,,3-7[12:1],3,4-8[12:1],4,5w1[96#12:1],6,4,5,,3/7,1<6[8:1]/5,,1>4[8:1],,1-5[8:1],,1,,1qq6[8:4]*pp4[8:4],1,1b,,,,,,
{16}1,,8,,2,,8-4[8:1],,,,2-6[8:1]/8,,,,2<4[8:2]/8,,,,4>8[8:2],,,,8<2[8:4],,,,,,2,,2<6qq6[8:3]*>6pp6[8:3],,
{8},,,,,,1/8,1-5[8:1]/8-4[8:1],,1/8,,7-3[12:1],6/8,7,,4-8[8:1],5-1[8:1],4,5<8[12:1]*>2[12:1],,,,8h[8:4],1,2-6[8:1],2-5[8:1],2-4[8:1],,,,,8,8-6[8:1],,8-2[8:1],,8-5[8:1]*-3[8:1],,8-4pp4[8:2]*-4qq4[8:2],,,,,,5-1[8:1],6/4,5,,4-8[8:1],3/5,4,,1-5[8:1]/2,1/2,1/2-6[8:1],,2/1qq6[8:3],,2-5[8:1],,2,,,,7>3[8:1],3<7[12:1],7b,,2<6[8:1],6>2[12:1],2b,,C,2/6,6bqq2[8:5]b/2bqq6[8:5]b,,,,,,,,,B7/B6/E7/Cf/B2/B3/E3,,,,,,,,
{24}7/8,6,5,4h[8:6],,,,,,,,,8,1,2,3h[8:2],,,,,,,,,Ch[8:2],,,,,,
{16},,5w1[8:1],,,,5b,C,,,6,1,5,,8,,4h[8:4],,7h[8:3],,,,,,,,8,3,1,,4,,2h[8:3],,5h[8:
2],,,,,,,,1/8,,,,1b/8b,,1b/8b,,,,2-6[12:1],,2,,1-5[12:1],,1,,8-4[12:1],,8,,7-3[12:1],,7,,6-2[12:1],,6,,5,,,,
{1024}6<6<7[8:22],2bqq7>7[8:22]*bqq7>7[8:22],
