&title=SnowMix♪ (feat. 初音ミク)
&artist=まらしぃ; 初音ミク
&first=1.525
&des=kk
&lv_5=13+
&inote_5=(185)
{8}3h[8:3],,,4,,,6h[8:3],,,5,,,1p4[8:2]/8q5[8:2],,,,,,
{8}1/3h[8:2],,1,,,6/8h[8:2],,6,,,45,,45,,
{8}5qq3[8:2]*pp7[8:2],,,,,,1pp3[8:2]*qq7[8:2],,,,,,7<5[8:2]/2>4[8:2],,,,,,
{8}4/1h[8:2],,4,,,3/7h[8:2],,3,,,36,,27,,
{8}8v2-4[8:2]*v6-4[8:2],,,,,,4V28[8:2]*V68[8:2],,,,,,7v5[8:2]/1v3[8:2],,,,,,
{8}1/5h[8:2],,1,,,3/8h[8:2],,3,,,26,,37,,
{8}3v2-8[8:2]/6v7-1[8:2],,,,,,4-1-7-3-5[16:12]/5-8-2-6-4[16:12],,,,,,,,,,
{4}2/8-5-3[2:1],2,2,2,2/3-6-1[2:1],2,2,2,2/1v6-4[2:1],2,2,2,
2/4q1-7[2:1],2,2,2,2/7-1-6[2:1],2,2,2,2/6<8-4-1[2:1],2,2,2,
{8}B6/B5,B3/B4,B7/B8,B1/B2,E8/E2,E7/E3,E6/E4,C4fh[8:1],E7/E3/B7/B6/B2/B3,,,,,,,,
{8}1-5[8:1],,1/7-2[8:1],,7/3-8[8:1],,3/5,5,
{8}5-2[8:1],,5/3-8[8:1],,3/7v4[8:1],,1/7,1,
{8}1>4[8:1],,1/8v5[8:1],,8/3v1[8:1],,3/6,6,
{16}6>3[8:1],,,,3,2,1,8,7,6,5,4,3,2,1,8,
{8}7-3[8:1],,7/5-1[8:1],,5/4q8[8:1],,4/2,2,
{8}2-5[8:1],,2/8v3[8:1],,8/1-5[8:1],,1/6,6,
{16}3,4,3,4,2,5,2,5,1,6,1,6,8,7,8,7,
{16}8,1,2,3,4/5,6,7,8,1bx/2b,,1bx/2b,,,,,,
{8}B6,,B3,,B7,,B2,B5,B6,,E8,,E2,,E7,E1,E3,,E6,,E4,,B5,B4,B3,B2,B1,B8,B7,,
{32}E6/E4,B6/B3,B7/B2,E8/E2,,,,,
{8}1x>5[4:1],,5>7[2:1],,,,,,6,6,,5<8[8:1],,5,,
{8}3-1<8-6[4:1],,6-8>1-3p6[2:1],,,,,,,5,5,,4-1[8:1],,4,,
{8}5V71[4:1],,1V75q1[2:1],,,,,,,3,3,,2-5-1[4:1],,2,,,
{8},5<8[4:1],5,,,,3>4[3:2],3,,,,,,,,,
{8}1-3[8:1],2,1/7-5[8:1],6,7/1-4[8:1],2,1/7-4[8:1],6,7/1,8,,8w4[8:1],,8b,,,
{8}2>4[8:1],1,2/8-5[8:1],7,8/1-4[8:1],2,1/7-5[8:1],8,7/2,4,,4w8[8:1],,4b,,,
{8}3<5[8:1],1,3,7-4[8:1],1,7,3-6[8:1],1,3,8-4[8:1],2,8,1-3-6[4:1],7,1,,,1/8<1[3:1],18,,,,,,1b/8b,,,,1b/8b,,,,1bpp4[2:3]/8bqq5[2:3],,,,,,,,,,,,,,,,
{8}1,5,2,7,3,6,4,7,1,5,8<1[2:1],,,,,,,,
{8}12,,38,,,6,5,47,,,18,,27,,
{8}3,4,5,2,6,1,7,2,5,3,4>5[2:1],,,,,,,,
{8}16,,38,,,4,7,25,,,48,,15,,
{8}1,2,5,6,8,7,4,3,1,5,8q5[4:1]*p3[4:1],,,,,,
{8}8b,8xw4[8:1],,8b,,,1b,1xw5[8:1]
,,1b,,,
{16},4x/5x,3x/6x,2x/7x,1bx-4[8:1]/8bx-5[8:1],,,,1b/8b,,,,
{8},,,,45,45,45,3b/6b,,,
{8}1>5[2:1],1,,,5<1[2:1],,,,,,
{16}5,6,7,8,1,2,3,4,5,6,7,8,1bx/2b,,1bx/2b,,,,
{8}2-5[8:1],2,,8-4[8:1],8,,3V14[3:1]*pp4[3:1],,,,,,,
{8}12,3,4,5,6V82[8:1],,6,3-5[8:1],,3,1V74[8:1],,1,2-8[8:1],,2,,,3,,
{8}5h[4:1]/1,1,1,1h[4:1],,,,4-7[8:1],,4-1[8:1],,4w8[8:1],,4b,,,
{8}8<5[4:1],,,,,,
{16}4,3,2,1,8,7,6,5,4,3,2,1,8bx/7b,,8bx/7b,,,,
{8}2V86[8:1],2,,5-1[8:1],5,,4-7-3[2:1]*-1-6-3[2:1],,,,,,,,,
{8}78,6,5q1[8:1],,5,4-2[8:1],,4,6V82[8:1],,6,3-5[8:1],,3,8-6[8:1],,8,,1>8[8:3],,,,,,,,
{8}78,,12,,45,3b/6b,,,
{8}6v8[8:1],,6,1-3[8:1],,1,5-7[8:1],,5,2-4[8:1],,2,6>3[8:1],,6,,,,
{8}12,,38,,,6,5,47,,,18,,27,,
{8}2>4[8:1],,2,8-5[8:1],,8,3V17[8:1],,3,6-4[8:1],,6,8-2[8:1],,8,,,,
{8}16,,38,,,4,7,25,,,48,,15,,
{8}7<4[8:1],,7,1-5[8:1],,1,8-3[8:1],,8,2-5[8:1],,2,8>3[8:1],,8,,,,
{8}45,,36,,,2,7,18,,,26,,37,,
{8}1,2,5,6,8,7,4,3,1,5,8>4[4:1]*<4[4:1],,,,,,
{16}1,2,3,4,5,6,7,8,1,2,3,4,5,6,7,8,
{16}6,5,6,5,8b,,3,4,3,4,2b,,8,1,8,,3,4,3,4,1b,,7,8,7,8,5b,,
{16}1,2,3,4,,,2,3,4,5,,,3,4,5,6,,,5,6,7b,,,,,,
{16}1/2,1/2,1h[4:1]/2h[4:1],,,,,,7/8,7/8,7h[4:1]/8h[4:1],,,,,,
{8}1>1[8:6],1,,5<1b[8:3],5,,
{12},,,6,6,,7,7,,
{8},1/8,
{16}1,8,1,,1-5[8:1],,,,1,,
6,7,8,1,2,4,,6,4,,2,4,,7,5,,3,5,,7,5,,3,5,,8,7,,3,4,,2,1,,5,6,,1,8,,2,4,,6,7,,2,8,,4,1,,8,6,,2,3,,4,5,1h[8:1],,,,
{8}2/8,3/7,4b/6b,,,
{16}2/4,2/4,2h[4:1]/4h[4:1],,,,,,5/7,5/7,,,1,2,,2,3,,3,4-8[8:1],,,,,,,
{8}1q5[8:1],,6p2[8:1],6,,1>4[8:1],1,,,
{16}8,7,6,5,4,3,2,
{32}1/3,4,5,6,7,8,
{4}1w5[8:1],1b>1[8:13],,,,,,,,
{8},3,4,6,5,1,2,8,7,1,4>5[2:1],,,,,,,,E4,,E6,,,E3,,E7,,,
{12}E2,B1,B8,E8,,,
{8},2,4,5,8,3,7,4,8,2,1>8[2:1],,,,,,,,B3,,B6,,,B2,,B7,,,
{12}E8,B7,B6,E6,,,
{8},1,2,4,3,7,8,6,5,1,5<4[3:1],,,,,,
{8}5b,5x-2[8:1]*-8[8:1],,5b,,,4b,4x-1[8:1]*-7[8:1],,4b,,,
{16},1x/5x,2x/6x,3x/7x,4bx-1[8:1]/8bx-5[8:1],,,,4b<2[1:1]/8b>6[1:1],,,,
{8},,,,,,,,,
{16},8x/4x,3x/7x,2x/6x,1bx-4[8:1]/5bx-8[8:1],,,,1b<3[1:1]/5b>7[1:1],,,,
{8},,,,,,,,,,,1,1,,,1>1[1:1],,,,,,,,,,,,5,5,,,4pp4-8>2[1:1],,,,
{8},,,,,,,,1>5[2:1],,1,,7-3[2:1],,7,,2-6[2:1],,2,,8-4[2:1],,8,,1-5[2:1],,1,,
6>3[4:1],,6,,,,1,28,,3,,24,,24,,,
{8}3/6,,
{12}3,,3,4,,4,5,,5,6,,6,7,,7,8,,8,1,,1,2,,2,3,,3,4,,4,5,,5,6,,6,7,,7,
{12},,,,,,
{8}1x-4[16:1],,,5x-8[16:1],,,2x-7[16:1],,,6x-3[16:1],,,1x-5[16:1],,1,,
{4}3h[4:1]/8h[4:1],,4h[4:1]/7h[4:1],,
{16}6,5,6,5,7,4,7,4,8,3,8,3,1,2,1,2,
{8}3>7[2:1],,,,,,
{16}4,3,2,1,8,7,6,5,4,3,2,1,8bx/7b,,8bx/7b,,,,
{8}3-8[8:1],3,,6-1[8:1],6,,3>1-4[3:1]*pp4[3:1],,,,,,,
{8}78,1,2,3,4-1-3[8:1],,4,6-8[8:1],,6,2-7-3[4:1],,2,5-1[16:1],,5,,,7,,
{8}3h[4:1]/7,7,7,7h[4:1],,,,2-4[8:1],,2-8[8:1],,2w6[8:1],,2b,,,
{8}4>1[4:1],,,,,,
{16}8,7,6,5,4,3,2,1,8,7,6,5,4bx/3b,,4bx/3b,,,,
{8}2-5-3[8:1],2,,7-3[8:1],7,,4-2-8p4[2:1]*p8-6-4[2:1],,,,,,,,,
{8}34,2,1v4[8:1],,1,7-3[8:1],,7,4-1-3[8:1],,4,5-1<7[8:1],,5,2-4[8:1],,2,,5-7-2-4[8:3],,,,,,,,
{8}18,1,18,,45,3b/6b,,,
{8}2-8[8:1],,2,6-4[8:1],,6,8-3[8:1],,8,5-1[8:1],,5,4<1[4:1],,,,
{8},,13,,13,,5,4,5,,36,,18,,27,,
{8}1v3[8:1],,1,4-7[8:1],,4,8-2[8:1]
,,8,5-1[8:1],,5,3p7[4:1]*q7[4:1],,,,
{8},,56,,56,,1,2,1,,38,,17,,24,,
{8}7v4[8:1],,7,2V86[8:1],,2,5-1[8:1],,5,8q4[8:1],,8,5w1[8:1],,,,
{8},,45,,36,,8,2,8,,31,,84,,27,,
{16}8b,,8xp4[8:1]*q4[8:1],,,,8b,C4f,,,1b,,1xp5[8:1]*q5[8:1],,,,1b,C4f,,,,,,,
{16}8b,,8xw4[8:1],,,,8bv1v2v3v4v5v6v7v8[1:7],C4f,,,
{1},,,,,,,
{8},,,,,,C4,,,,,,,,,,,,,,,,,,,,,,,,,,,,,,,,,,,,,,,,,
E
