&title=FIRE BIRD
&artist=Roselia
&first=0
&des=心白-HW
&des_7=心白-HW
&lv_7=29
&inote_7=(80){4},,,,{8}8/3,
7,6/1,{16}2,7,{8}3/8,7,6/1,2/8,
7/3,6,7/3,{16}8,1,{8}2/6,3,6/2,{16}8,1,
{8}2/7,6,8/3,{16}1,7,{8}6/1,7,6/1,{16}8,2,
{8}7/3,6,7/3,6,7/3,6,3/8,{16}7/2,1,
{8}8/6,1,2/7,{16}6,1,{8}7/3,2,3/7,2,
6/1,2,3/8,{16}7,2,{8}6/1,3,6/1,{16}7,1,
{8}2h[4:1]/5h[8:3],{4},{16}1,6,{8}7/4h[8:3],5,8,{16}5,2,
{8}3/6,8,(76)6/3,1,(74)6/3,8,(72)6/3,{16}2,7,
(70){8}3/8,7,3/8,7,(64)3/8,7,7/2,6/3,
(61){4}5/4,(95){16}8,(150)1,8,1,8,1,8,(200)1,(170)8,(200)1,8,(160)1,
(180)8,1,(200)8,(230)1,(190)8,1,(180)8,1,{8},(210)1,,8,
,(150)1,,(135)8,,(113)1,,(80)2,
(664){1},
(124)3b,
,(150){4}1x,
1,{8}1,1,1,{16}3,6,
4b/5h[8:1],{8},{16}6b/2h[8:1],{8},3b/7h[4:1],,2,{16}4,7,2,5,
{8}4h[8:1],{16}6,3,{8}5h[8:1],2,5/1h[8:1],{16}7,3,{8}8h[8:1],4,
{16}5b/4h[8:1],{8},{16}7b/3h[8:1],{8},5b/2h[4:1],{4},{16}5,2,7,4,
{8}6h[8:1],{16}4,8,{8}3h[8:1],5,{16}2,7,2,7,{4}2/5h[4:1],
{16}3x,7,4,6,2,5,3,8,{8}4b,{16}2,5b,,8,{8}4b,
{16}6,1,5,3,7,2,6,3,{8}5b,{16}7,4b,,1,{8}5b,
{16}3,6,2b,7,4b,5,3,8,4b,7,3,5b,2,7,{8}4b,
{16}6,3,7b,2,5b,4,7,3,8b,4,6,1b,5,3,8b,4,
{8}5h[8:1],{16}4h[16:1],7,3h[16:1],6,4h[16:1],7,3h[16:1],5,2h[16:1],6,3h[16:1],5,2h[16:1],6,
{8}3h[8:1],{16}5h[16:1],2,6h[16:1],3,5h[16:1],2,6h[16:1],4,7h[16:1],3,6h[16:1],4,7h[16:1],3,
{8}6h[8:1],{16}3h[16:1],7,2h[16:1],6,1,8,1h[16:1],5,3h[16:1],7,4h[16:1],6,2,7,
{8}3h[8:1],{16}5,7,2,1,8,7,1,8,7,6,4,5,3,6,
{8}2x,{16}4h[16:1],5h[16:1],1,6h[16:1],2,7,3h[16:1],6h[16:1],2,7h[16:1],3,6,1h[16:1],5h[16:1],
{8}4,{16}6h[16:1],3h[16:1],8,4h[16:1],5,2,7,8,7,8,7,8,7,8,
{8}7b,{4},{16}6,3,{8}7h[8:1],{16}2,5h[8:1],,3,8,4,
{8}5b,{16}3,8b,{8},4b/6h[4:1],,{16}3,5,2,6,1,5,
{4}2h[4:1],{8}6,{16}3,5,{4}2h[4:1],{8}7,2,
{16}5/1h[16:3],{8},{16}6,{8}4,{16}5,1h[16:5],{8}5,6,7,3,
{4}4/7h[4:1],{8}3,{16}7,4,{4}8h[4:1],{8}2,7,
{16}4/8h[16:3],{8},{16}3,{8}5,{16}4,8h[16:5],{8}4,4h[8:1],,3/5h[8:1],
{4}2h[4:1],{8}5,{16}2,6,{4}1h[4:1],5,
{16}4/8h[16:3],{8},{16}2,{8}5,{16}3,8h[16:5],{8}3,4,{16}3,6,2,7,
5/4,{8},{16}7/2,{8},8,5b/4b,{24}3,7,2,{4}6,
{8}1,1/3b,1/2b,1,1/7b,{16}1,3b,{8}1,1/8b,
1,1/2b,1/7b,1,1/3b,{16}1,8b,{8}1,1/2b,
7/4,2/6h[8:1],3h[8:1],6h[8:1],3h[8:1],7h[8:1],2h[8:1],7h[8:1],
{16}4,6,2,7,3,5,2,6,{2}1s5[0##0.5]/8z4[0##0.5],
{8}5b/4b,{16}3h[16:1],7,4h[16:1],5,{8}3h[8:1],{16}6h[16:1],4,5h[16:1],2,7h[16:1],3,6h[16:1],2,
{8}7xh[8:1],{16}3h[16:1],6,4h[16:1],8,3h[16:1],6,4h[16:1],7,2h[16:1],5,4h[16:1],7,{8}3,
5b/3>8[0##0.2],5,5b/8>3[0##0.2],5,4b/6<1[0##0.2],4,4b/1<6[0##0.2],4,
{2}2p5[0##0.5]/7q4[0##0.5],{8}5b/4b,{16}3,7,4,6,2,5,
{8}3,{16}7h[16:1],4,5h[16:1],2,{8}6h[16:1],7h[8:1],{16}2h[16:1],6,4h[16:1],7,3h[16:1],5,
{8}2h[8:1],{16}5h[16:1],3,6h[16:1],1,5h[16:1],2,{8}7h[8:1],{16}4,8,3,7,2,5,
4b/6bh[16:3],{8},{16}3bh[16:3],{8},6b,{16}5b/1bh[16:3],{8},{16}8bh[16:3],{8},2b,
{16}6b/4,4,7,3,5,5,2,6,4/7,3,6,2,5,3,{8}7bh[8:1]/2bh[8:1],
,{16}6h[16:1],3,5h[16:1],2,{8}6h[8:1],{16}4xh[16:1],6,3h[16:1],5,2h[16:1],7,3h[16:1],5,
{8}2h[8:1],{16}6h[16:1],3,7h[16:1],2,6h[16:1],3,5h[16:1],4,6h[16:1],2,7h[16:1],3,{8}6,
4b/6<1[0##0.2],4,4b/1<6[0##0.2],4,5b/3>8[0##0.2],5,5b/8>3[0##0.2],5,
{2}2p5[0##0.5]/7q4[0##0.5],{8}5b/4b,{16}6,3,7,2,6,4,
{8}6h[8:1],{16}2,8,1,1,1,1,{8}4h[8:1],{16}6,2,{8}7,{16}3,6,
{4}4h[16:3]/5h[16:3],{16}4,5,2,7,4,8,4,8,3,7,2,6,
5/3h[16:3],{8},{16}6h[16:3],{8},{16}4,7,{4}2h[4:1],7h[4:1],
{24}3,{6},{24}6/2,{8},7/4,3/5,{24}4,7,2,{8}5,{16}7,1,
6b/8,{8},{16}7b/2,{8},1b/3,{16}4b/7h[8:1],{8},{16}2b,{8}5h[8:1],7b,
6/3,{16}2,7,{8}4h[16:3],6,5/3h[16:3],6,4/8h[16:3],3,
{16}2/5<7[0##0.5],{8},{16}3,{8},2,{4}7b/4,{8}6/3,{16}7,2,
8b/4bh[1:2],{8},{16}7b,{8},6b,,8,{4}1bh[4:1],
{8},7bh[8:1],,8bh[8:1],,1bh[8:1],,7,
{16}5h[8:1],{8},{16}6b/2h[8:1],{8},3b/8h[4:1],,2,{16}4,7,2,5,
{8}4h[8:1],{16}6,2,{8}5h[8:1],{16}3,6/2,4,7,2,7,{4}3xh[4:1],
{16}6,4,5b,2,7b,4,6,2,{8}3/5b,{16}7,4b/6,,2,{8}3/5b,
{16}2,6,4b,7,2b,6,3,7,{8}5/4b,{16}2,5b/4,,7,{8}4b/5,
{16}6,2,7b,4,5b,3,6,4,8b,3,5,1b,6,4,8b,3,
{8}7,{24}4,8,4,7,2,7,1,5,1,{16}6,3,5,4,7,2,{8}5b/4b,
