&title=PRECIOUS
&artist=HIMEKA
&first=0.59
&des=天使の翼。
&lv_5=13
&inote_5=(148)
{1},,,,
{4},
{16}3h[16:3],,,4,3,,2,,1-5[8:1]/7,,,,
{16}8,,,,6h[16:3],,,5,6,,7,,8-4[8:1]/2,,,,1,,2<4[4:1],,,,6,,,,,,7h[4:1],,,,,,
5,6,4>1[8:1],,,,D6`E6,,,,4<7[8:1],,,,D3`E3,,,,
{16}3h[16:3],,,6,5,,7,,8-4[8:1]/2,,,,
{16}1,,,,3h[16:3],,,4,3,,2,,1-5[8:1]/7,,,,8,,7>5[4:1],,,,3,,,,,,2h[4:1],,,,,,
5,6,4>5[2:1],,,,,,{16}B4,B5,E6,,,,
{8},,
{16}1h[16:3]/7,,,6,,,3,4,2qq3[2:1],,,7,,,7h[8:3],,,,,,,,,,
5-1V74[2:1],,,4,,,3h[8:3],,,,,,,,,,
2pp1[2:1],,,5,,,6h[8:3],,,,,,,,
6,,7/8,,,8/1,,,1-4[8:1]/2-6[8:1],,,,,,,,,,
{16}5pp4[2:1],,,3,,,2h[8:3],,,,,,,,,,
1qq2[2:1],,,5,,,6h[8:3],,,,,,,,,,
7qq8[2:1],,,4,,,3h[8:3],,,,,,,,
3,,2/1,,,7,8,,5,,3,4,2,4,3,,1,,2/8,,,,
{16}7h[8:1],,5,6,,6,4,,3/5-7[8:1],,2,,5/1,,,,
{16}2h[8:1],,4,3,,3,5,,6/4-2[8:1],,7,,4/8,,,,
{16}6h[8:1],,8,7,,7,1,,2x/8-5[8:1],,3,,8/4-7[8:1]*-1[8:1],,,,4x,,,,
{16}2/6,,,3,4,,1,,2/8,,,,
{16}7h[8:1],,4,6,,5,2,,1/7-3[8:1],,8,,7/1,,,,
{16}2h[8:1],,5,3,,4,7,,8/5-1[8:1],,7,,6/5,,,,
{16}2,,6,5,7,,1,,8qq2[4:1]/2,,3,,4b,,,,,,,,
{16}5/3,,2,,1,,8,,
7qq4[2:1],,,,1,,,,2,,,,3,,,,4-2[8:1],,,,6,,,,4-6[8:1],,,,1,,,,
2pp5[2:1],,,,8,,,,7,,,,6,,,,5<8[8:1],,,,3,,,,1>4[8:1],,,,5,,,,
6h[16:3],,,5,
6,,4,,7/3,,7,,7/1,,6,,3h[16:3],,,4,
3,,5,,2/6,,2,,2/4,,1,,
{16}1b/8b,,,2b/4b,,,7b/5b,,,8,1,8,1,8,
{32}1,2,3,4,5,6,7,8,1b/5b,,,,
{4}3b/7b,
{16}
1/8,,2,4,3>5[4:1],,7,,5b/3x,,,,
4q8[8:1],,3,3,4x,,,2,1qq2[4:1],,8,,1x/7x,,,,
6,,3,,5p1[8:1],,,6,5x,,7,,8/7,,1>4-8<5b[2:1],8,,,3xh[2:1]/B1/E1/E2/A1f,,,,,,,,
{16},,1/4,,,3,3,,
{16}
4,,5/6,,7,4,6<4[4:1],,5,,6x/4b,,,,
1,,6,3,5-8[8:1],,4,,3/5,,2,,8,,
1-5[8:1],7,2,,5/1,,,,6,,3,4,3,,1/8,,7,5,6,,3/4,,2,8,1<3b[4:1],,6,,A1f/E2/B1/E1,,,,7,,7,,8,,
{16}1/7,,6,3,4,,2-6[8:1],,5-8[8:1],,2,,
5,,1,,
8/2,,7,5,6,,2-6[8:1],,7-4[8:1],,2,,7,,
1,,82,,34,,56,,7,1,8,,3,2/4,,,7/5,,6,4,5qq2[8:3]*pp8[8:3],,,,5b,,,,,,,,,,
{16}1,,,6,5,,7,,2-4[8:1]/8-4[8:1],,,,2-6[8:1]/8,,,,
2/5-8[8:1],,,,5/4,,,,1/7,,2<7[8:1],4,3,,6/2,,,,5,,1,,2,,3b/4b,,6,,7/1,,8,2,4,,3,,6z2[4:1],,
3,4,5,,,,
{4},
{16}3h[16:3],,,4,3,,2,,1-5[8:1]/7,,,,
{16}8,,,,6h[16:3],,,5,6,,7,,8-4[8:1]/2,,,,1,,2<4[4:1],,,,6,,,,,,7h[4:1],,,,,,
5,6,4>1[8:1],,,,D6`E6,,,,5<8[8:1],,,,D4`E4,,,,
{16}3h[16:3],,,6,5,,7,,8-4[8:1]/2,,,,
{16}1,,,,3h[16:3],,,4,3,,2,,1-5[8:1]/7,,,,8,,7>5[4:1],,,,3,,,,,,2h[4:1],,,,,,
5,6,4>5p4[4:5],,,,,,{16}E6,B6,B7,,,,
{4},,,,
