&title=ロウワー
&artist=ぬゆり feat.v flower
&first=0
&des=Kurage
&lv_6=13+
&inote_5=
&inote_6=(264)
{1},
{4},,2h[4:16],,
{4}6h[4:1],,6h[4:1],,5h[4:1],,5h[4:1],,4h[4:1],,4h[4:1],,5,5,6h[4:16],,
{4}4h[4:1],,4h[4:1],,3h[4:1],,3h[4:1],,2h[4:1],,2h[4:1],,3,3,4h[4:16],,
{4}8h[4:1],,8h[4:1],,7h[4:1],,7h[4:1],,6h[4:1],,6h[4:1],,7,7,8h[4:10],,
{4}2h[4:1],,2h[4:1],,4h[4:1],,4h[4:1],,3>7>3[4:3],,C,,4xz8[4:2],,,,
{4}1-3[16:3],7-5[16:3],4x,{12}3xh[12:2],,4x,2,,4x,{4}1pp1[16:9],5x,5,
{4}7xh[4:2],B2/E2,3xh[4:2],B6/E6,{12}C,,E3,E4,,E8,E7,,B1,B5,,,
{4}2-8[16:3],4-6[16:3],7x,{12}8xh[12:2],,7x,8,,7x,{4}1pp1[16:9],5x,5,
{4}7xh[4:2],B1/E1,3xh[4:2],B5/E5,{16}B3,C,B7,,{4}1xh[4:1],{12}7x,,7,3x,,3,
{4}8-6[16:3],2-4[16:3],5x,{12}6xh[12:2],,5x,7,,5x,{4}8qq8[16:9],4x,4,
{4}2xh[4:2],B7/E8,6xh[4:2],B3/E4,{12}C,,E7,E6,,E2,E3,,B8,B4,,,
{4}7-1[16:3],5-3[16:3],2x,{12}1xh[12:2],,2x,1,,2x,{4}8qq8[16:9],4x,4,
{4}2x-6[16:3],6,8x-4[16:3],4,2x-6[16:3],6,8xbp4[16:3]*q4[16:3],,
{4}2xh[4:1]/6x,6,6/4h[4:1],6,{12}7,,7,5,,6h[12:4],,,,4,,,
{4}3h[4:1]/7,7,7/5h[4:1],7,{12}8,,8,4,,6h[12:4],,,,5,,,
{4}4h[4:1]/8,8,8/2h[4:1],8,{12}7,,7,1,,8h[12:4],,,,4h[4:7],,,
{4}6h[4:1],,8h[4:1],,2h[4:1],,6,5,
{4}7h[4:1]/3x,3,3/5h[4:1],3,{12}2,,2,4,,3h[12:4],,,,5,,,
{4}6h[4:1]/2,2,2/4h[4:1],2,{12}1,,1,5,,3h[12:4],,,,4,,,
{4}5h[4:1]/1,1,1/7h[4:1],1,{12}2,,2,8,,1h[12:4],,,,5h[4:7],,,
{4}B2,E4,E8,B6,B2,E4,3x,4x,
{4}2h[4:1]/6x,6,8/3h[4:1],8,{12}7,,7,5,,6h[12:4],,,,4,,,
{4}7h[4:1]/3,3,1/6h[4:1],1,{12}2,,2,4,,3h[12:4],,,,5,,,
{4}2h[4:1]/6,6,8/3h[4:1],8,{12}7,,7,5,,6h[12:4],,,,4h[4:1],,,
{12}7,,7,5,,5,6,,6,4,,4,5,,5,3,,3,7h[4:1],,,5,,,
{4}6x/2h[4:1],6,8/4h[4:1],8,{12}7,,7,5,,8h[12:4],,,,4,,,
{4}3/7h[4:1],3,1/5h[4:1],1,{12}2,,2,4,,1h[12:4],,,,5,,,
{4}6/2h[4:1],6,8/4h[4:1],8,{12}7,,7,5,,8h[12:4],,,,4,,,
{4}7h[4:1]/5h[4:1],,46,3,{12}5,,5,4,,4,7,,7,3,,,
{4}6h[4:1]/2x,4,3h[4:1]/7,5,{12}6,,4,,,43,,,15,,,2xqq7[12:10],
{4},6,{12}5,,5,,,4xh[12:4],,,,8,,,4,,4<8[8:3],2,,2x,
,,,3,,,{12}57,,5>1[8:3]*>1[8:3]/7,,,6x,,,,5,,,34,,3qq4[12:7]/4pp4[12:7],,,,
{4},,,3x,2h[4:1]/4,4,6h[4:1]/5,5,
{4}3h[4:1]/7x,5,6h[4:1]/2,4,{12}3,,5,,,56,,,84,,,7xpp2[12:10],
{4},3,{12}4,,4,,,5xh[12:4],,,,1,,,5,,5,7,,7,
{12}3xh[12:2],,4,3,,,6x/5x,,,3,,3,7xh[12:2],,5,7,,,4x/5x,,,3x/6x,,,
{4}1>5[4:1],5V71b[32:8]*<5[4:2],,,7xh[4:3],,,3,
{4}6x/5x>2[16:3],8,7q4[4:1]/1x-4[4:1],B1,,{12}56,,7h[12:3]/5,,,3h[12:1],6,,3h[12:1],
{4}4<7[16:3],1,2p5[4:1]/8x-5[4:1],B8,,{12}34,,2h[12:3]/4,,,6h[12:1],4,,6h[12:1],
{4}2<7[16:3],7v2[16:3],5xpp4[16:9],,3,3-7[16:3],5x-2[16:3]*-8[16:3],,
{16}D1,D2,D3,D4,D5,D6,D7,D8,{4}D1/Cf,,{12}4x/5x,,4x/5x,,,36,,,2h[12:1],4,,6h[12:1],
{4}5x>2[16:3],8,7-4[4:1]/1xp4[4:1],B7,,{12}23,,1-4[16:3]/4,,,1,6,,6,
{4}5-8[16:3],8,7-4[4:1]/1xp4[4:1],B7,,8x-4[16:3]/2x,3x>5b[16:8],
B5/A5/E6f,,8x,8x-6[8:1],3x-7[8:1],4-7[16:3],1-5[16:3],6<4b[16:8],B4/A4/E4f,
,1x,1x-5[8:1],7x-3[8:1],4bw8[4:2],,,,
{4}6x-3[16:7],4x,2,2,{12}1pp1[16:9],,1,,,5xh[12:4],{4},,
{4}6-3[16:7],8x,1,1,{12}2q7[16:7],,2,,,5xh[12:4],{4},,
{4}6-3[16:7],4x,2,2,{12}1v2-4[16:9],,1,,,5xh[12:4],{4},,
{12}6x,,6,5x,,5,4x,,4,3x,,3,{16}B3,C,B7,,{4}1xh[4:1],5x,3x/7x,
{4}5x-8[16:7],1x,3,5h[4:1],{12}7pp7[16:9],,7,,,3xh[12:4],{4},,
{4}4-1[16:7],8x,6,4h[4:1],{12}2qq2[16:9],,2,,,6xh[12:4],{4},,
{4}5-8[16:7],1x,3,5h[4:1],{12}7-3[16:5],,7,,,1xh[12:3],,,,1xb/B5f/A5/E6/E5,,,
{12},,,{4}2xh[12:2]/4xh[12:2],5h[12:2]/6h[12:2],8h[12:2]/4h[12:2],
{16}7xh[256:1],6,5,4,1xh[256:1],2,3,4,8xh[256:1],7,6,5xh[256:1],2,3,4,5q5[16:45],
{4}1q1[4:11],,,,,,,,,,,,,,,,
{4}4p4[4:11]/8p8[4:11],,,,,,,,,,,,,,,,
{4}3h[4:8],,E5,,,,E5,,7h[4:8],,C,,,,C,,1h[4:8],,E1,,,,E1,,
{12}8bh[12:1],,1h[12:1]/7h[12:1],,1h[12:1]/7h[12:1],,2x,6x,2x,6x,2x,6x,
3,4,3,5,4,6,3,,3h[12:1],7,,7h[12:1],
{12}1bh[12:1],,8h[12:1]/2h[12:1],,8h[12:1]/2h[12:1],,7x,3x,7x,3x,7x,3x,
6,5,6,4,5,3,{16}7,8,1,2,3,4,5,6,
{4}7x-3[16:3]/3x,8,1>4[16:3]/5x,7,6h[4:1],{12}5,,4-1[16:3]/8,,,4,6,,6,
{4}2x-6[16:3],1,8<5[16:3]/4x,2,3h[4:1],{12}4,,5-8[16:3]/1,,,5,3,,3,
{4}7x>2[16:3],2q7[16:5],4xqq5[16:9],,6x,6-2[16:3],4x<7[16:3]*>1[16:3],,
{16}D1,D8,D7,D6,D5,D4,D3,D2,{4}D1/Cf,,{12}5x/4x,,5x/4x,,,63,,,7h[12:1],5,,3h[12:1],
{4}4x-8[16:3],1,2-6[16:3]/6x,1,8h[4:1],{12}4,,3/7-3[16:3],,,7,1,,1,
{4}4x<7[16:3],2-6[16:3],8x-3[16:3]*-5[16:3],8x,,1x-5[16:3]/7x,6x<4b[16:8],B4/A4/E4f,
,1x,1xV35[4:1],5x<1[4:1],1>5[4:1],5,6V82-4b[16:7],B4/B5/E5f,
,1x,1x>5[4:1],5xV71[4:1],1V35[4:1],5,6<8>2>4b[32:15],B5/A5/E6f,
,1x,1x-5[16:3],6x-1[16:3],3-6[16:3],8-4[16:3],3>2<1<8<7<6>5b[16:7],B4/A4/E4f,
,8x,8x-4[16:3],2x-5[16:3],7-4[16:3],1w5b[32:7],,,4-1[32:7]/7-2[32:7],,A1/A2/E2f/B1/B2,
