&title=Bliss
&artist=litmus*
&first=0.04
&des=MaoAYun
&lv_5=12+
&inote_5=(128)
{1},
{4}6h[4:1]/3,E2/B2/B1,6/3h[4:1],E8/B7/B8,6h[4:1]/3,E2/B2/B1,6/3h[4:1],E8/B7/B8,
{4}6-8[8:1]/3,B4/B5/E5,6/3-1[8:1],B4/B5/E5,6<8[8:1]/3,56,
{8}6/3>1[8:1],5,3v8[8:1]/4-6<7[8:1],,,,
{8}1/C,2,3h[4:1],,C,4,,3,C,2,{16}1x,,,1x,C,,1x,,2h[4:1],,{8},C,1,2,3,4/C,5xh[2:1],,{16}8,,7,,6,,4-1b[8:1],5,3,6,4b,,,,
{8}27,,1,8,{16}7h[16:3],,,6h[16:3],,,5,,,,{8}7v4[8:1],4<5-8[8:1],7,3,2,1q5[8:1],7,18,,7,5,{16}4h[16:3],,,3h[16:3],,,2,,,,{8}3v8[8:1],8>1-4[8:1],3,7,6,5q1[8:1],3,
{8}4xv2[8:1]/5,4,8xv6[8:1],8,1xpp3[8:1],1,5xpp7[8:1],5,4x-1b[8:1],3,8x-5[8:1],7,2x-4<5b[8:1],3,6x-8>1[8:1],7,
{16}E2,E3,E4,E5,E1,E8,E7,E6,A2/B2,A3/B3,A4/B4,A5/B5,A6/B6,A7/B7,8bxw4b[36#32:1],,{4},,,8bx,
{8}26,,1-7-5-3[6:1],7,{16}1-5[8:1],,,,1,,,3,,,2h[8:1],,4,3,,6h[8:1],,4,5,,6<8[8:1]/3>1[8:1],,45,,63,,,,{8}8-2-4-6[6:1],2,{16}8-4[8:1],,,,8,,,6,,,7,,65,,4,,35,,2,,4-1[16:1],,,E6f/B6/B5,
{8},,5-3-7[6:1],3,{16}5-1[8:1],,,,5,,,6,,,7h[8:1],,5,6,,3h[8:1],,5,4,,6-8[8:1]/3-1[8:1],,54,,63,,,,{8}1-7-3[6:1],7,{16}1-5[8:1],,,,1,,,3h[16:7],,,E5,,E7,,E1,,1x-5b[8:1],8x,7x,6x,5x/1b,,
{8},,,5,6,7,8h[2:1],,6>3[8:1],,6-8-4<5-1-3b[8:5],,6xh[8:5],,,,,,,1,2,3,4h[4:3],,5-3[8:1],,5<8[8:1],,5-2-4-1b[8:3],,8x,8xh[4:1],,,,
{8}1q5[8:1],7,1-7-4[4:1],,4>5[16:10],4,,1xq7b[16:4],,1,,,8q4[8:1]*v3[8:1],,8b,,34,2,4,3,5,4h[2:1],,E5,E7,E1,{16}5-1b[8:1],7,5,6,5b,,
{8},7/B1,6,5/B2,,8/B3,7,6/B4,5h[4:1],B1,,6/B2,7,B3,8,{16}8bx/B4,7,{8}6,2/B8,3,4/B7,,1/B6,2,3/B5,4h[4:1],B8,,3/B7,2,B6,1,{16}1bx/B5,2,3,,
{8}7,7,6,6,5,5,4,4,2,2h[8:1],8,8h[8:1],6,6h[8:1],4,4h[8:1],
{16}E4,E3,E2,E1,E5,E6,E7,E8,B2/A2,B3/A3,B4/A4,B5/A5,B6/A6,B7/A7,8bx<7-5>4b[36#32:1]*>1-3<4b[36#32:1],,{4},,,8bx,
{8}26,,1<4[6:1],7,{16}1q5[8:1],,,,1,,,3,,,2h[8:1],,4,3,,6h[8:1],,4,5,,6v1b[8:1]/3,,45,,63,,,,{8}8>5[6:1],2,{16}8p4[8:1],,,,8,,,6,,,7,,65,,4,,35,,2,,4-1[16:1]*-7[16:1],,,A4f,
{8},,5>3p7[6:1],3,{16}5p1[8:1],,,,5,,,6,,,7h[8:1],,5,6,,3h[8:1],,5,4,,3v8b[8:1]/6,,54,,36,,,,{8}1<7p3[6:1],7,{16}1p5[8:1],,,,1,,,2h[16:7],,,E5,,E7,,E1,,2v5b[8:1],1,3,8,2b>5[8:1],,,,
{64}E1f/2,E8,E7,E6,{16},,,3>8[8:1],,2,4,3qq5[4:1],,,,63,,,7h[16:3],,,4h[8:1],6,6,3,,5h[8:1],,3,6,,6xv8[8:1]/3xv5[8:1],7x,4x,,6b/3b,,,,6<1[6:1],,7,5,6pp4[4:1],,,,63,,,2h[16:3],,,6,,{32}3x>8b[8:1]/7b,4x,5x,,{16}8-4[8:1],,{32}8x/3b,7x,6x,,{16}5hx[8:1],,,,,Cf/B1/B3/B5/B7,,,,,
{16}1-4[8:1],,2,8,1qq2[4:1],,,,13,,,4h[16:3],,,1h[8:1],3,3,8,,2h[8:1],,7,1,,2x-4[8:1]/7x-1[8:1],3x,8x,,2b/7b,,,,8-5[6:1],,7,1,8pp7[4:1],,,,86,,,5h[16:9],,,8,,2,,4,,{32}4xw8b[12:1],3x,2x,1x,8x,7x,6x,5x,4bx/Cf,
&inote_6=
