&title=臙脂 ft. 重音テト
&artist=bk
&first=0
&des=一般通过4k玩家
&clock_count=4
&lv_5=13+
&inote_5=(170)
{1},
{16}
,,,,,,,,4,,,,4,,5,5,
4,,6,,5,,4,,3h[4:1],,,,5,,4-2-4[4:1],,
4,,6,,6-8-6[4:1],,,,5,,5,,,,4,,
35,,6,,5,,4,,3h[4:1],,,,5,,4-7-4[4:1],,
5,,6,,6-1-6[4:1],,,,3,,3[8:1],,,,4,,
45,,6,,5,,4,,3,,5h[4:1],,,,4,,
3v4[8:1]/4,,,,5,,5,,,,6-4[8:1]/5,,,,6/3,,
3bx-6b[8:9],,,,,,,,,,,,,,,,
,,,,,,5h[8:3],,,,,,4,,,,
54,,6,,5,,4,,3h[4:1],,,,5,,4-2-4[4:1],,
4,,6,,6pp8p4[8:3],,,,5,,3b,,,,,,
35,,6,,5,,4,,3h[4:1],,,,5,,4-8-4[4:1],,
5,,6,,6-1-6[4:1],,,,3,,3[8:1],,,,4,,
45,,6,,5,,4,,3,,5h[4:1],,,,4,,
3V14[4:1]/4,,,,5,,5,,,,6-3[8:1]/5,,,,65,,
4xh[4:7],,,,3,,,,C,,,,3,,,,
C,,,,3,,,,C,,,,3-5[8:1],,,,
Ch[48:1],,,,,,,,,,,,6<2v4[2:1],,6h[8:7],,
,,,,,,,,,,,,,,3h[4:7],,
5h[8:9],,,,,,,,,,,,,,,,
,,,,,,4,,4h[8:3],,,,,,,,
3-5[8:1],,,,,,6-4[8:1],,,,,,,,,,
,,,,3,,3,,,,5,,,,6h[4:3],,
4h[8:7],,,,,,,,,,,,,,5,,
5v6[8:1]/4-6[8:1],,,,,,,,3v4[8:1]*-5[8:1],,,,,,,,
6<4>6[2:3],,,,E2/B1,,,,B4/E4,,,,,,5h[4:3],,
,,,,,,,,,,,,4,,,,
3>5<3[2:3],,,,E8/B8,,,,B5/E6,,,,,,4,,
4,,,,5,,5h[4:1],,,,,,5,,,,
6<4>6[2:3],,,,E2/B1,,,,B3/E4,,,,,,5h[4:3],,
,,,,,,,,,,,,4,,,,
3>5<3[2:3],,,,E8/B8,,,,B5/E6,,,,,,,,
4pp4[2:1],,,,,,,,,,,,,,,,
3/4h[2:1],,,,B2/E3,,,,,,,,4h[4:3]/3h[8:5],,,,
,,,,,,,,,,,,B3,,B4,,
6/5h[2:1],,,,B7/E7,,,,,,,,5h[4:3]/6h[4:2],,,,
,,,,,,,,6^5^4[8:1],,,,,,,,
3bh[128:1]/4x,,3x-6[8:1]/4bv5[8:1],,3bh[128:1]/4x,,,,,,,,3bh[128:1]/4x,,3x-6[8:1]/4bv5[8:1],,
3bh[128:1]/4x,,,,,,,,3h[4:1],,,,4,,5/4>6[8:2],,
,,C/4^6[8:10],,,,,,,,,,,,,,
,,,,,,,,,,,,4,,4,,
3-5[8:1]/5,,,,6,,6pp6[4:1],,5,,5-3[8:1],,,,5-8-5[4:1],,
,,4,,4-1-4[4:1],,,,6,,6,,5,,,,
45,,6,,3,,4,,5,,6-4[8:1],,,,3-8-3[4:1],,
,,5,,5-1-5[4:1],,,,4,,4,,3,,,,
46,,6,,3h[8:1],,4h[8:1],,5v3[4:1],,4-6[8:1]/5,,,,,,
,,,,5,,4h[4:1],,,,5,,4/3h[8:1],,,,
5h[4:7],,,,A4/E5/B4/E4/C/B6/A6,,A4/E5/B4/E4/C/B7/A7,,A4/E5/B4/E4/C/B8/A8,,A4/E5/B4/E4/C/B1/A1,,A4/E5/B4/E4/C/B2/A2,,,,
3h[4:3],,,,,,,,,,,,,,,,
3-5[8:1]/5,,3,,6,,6pp8^6[4:1],,5,,5-3[8:1],,,,5-8-5[4:1],,
,,4,,4-1^6[8:2],,,,34,,5b,,,,4,4,
3x/5x,,6,,3,,4,,5,,6-4[8:1],,,,3v8v3[4:1],,
,,5,,5q1p5[4:1],,,,4,,4,,3,,,,
46,,6,,3h[8:1],,4h[8:1],,5q3[4:1],,4^6[8:1]/5,,,,,,
,,,,5,,4,,5h[8:1],,4,,4/3h[8:1],,,,
6h[128:1]/5,,4,,3/B7/E8,,4,5,4,5,4,,3/B7/E8,,4,5,
4,,56,,3/B7/E8,,4,5,4qq4b[4:1],,56,,B7/E8f,,,,
5,,5,,4,,3h[8:1],,5,,4/6h[8:1],,,,5/4-8^6[4:1],,
,,3,,3^1-5[4:1],,,,4,,4-6[8:1],,,,34,,
,,5,,4,,3h[8:1],,5,,4/6h[8:1],,,,3/5-2^5[4:1],,
,,6,,6^1-6[4:1],,,,4,,4v3[8:1],,,,45,,
,,6h[8:1],,5h[8:1],,4h[8:1],,3h[8:1],,4h[8:1],,5<3[4:1],,6,,
6h[4:1],,,,,,45,,3/6,,4-6[8:1]/5-3[8:1],,,,5/4,,
,,,,B1,,E2,,E7,,D7,,A3,,D3,,
E7,,D7,,A3,,5,4,6^4[8:1],,6,,4,,,,
35,,,,3h[4:4]/4,,4,,,,5,,5,,,,
4,,4,,4-6[8:1],,,,3/4v3[8:1],,,,5,,,,
64,,,,6h[4:4]/5,,5,,,,4,,4,,,,
5,,5,,5-1-7-3[8:3],,,,6bx/5,,6bx,,4bx,,,,
3x/4,,,,5h[4:4]/4,,4,,,,6,,6,,,,
4,,4,,4-6-4[4:1],,,,3/4v3[8:1]*v6[8:1],,,,,,,,
5>6-8-2-4[8:10],,,,5h[4:2],,,,,,,,,,,,
5h[8:1],,,,5h[8:1],,,,5h[8:1],,,,Ch[48:1],,,,
6b-1-3[8:3]/4b,,,,3,,3-8-5[8:3],,,,5,,5,,,,
4,,4,,4v3[8:1],,,,5/4-6[8:1],,,,,,,,
3b-8-6[8:3]/5b,,,,6,,6-1-4[8:3],,,,4,,4,,,,
5,,5,,5pp6^4[8:3],,5qq4[4:1],,,,,,,,,,
5b-1-3[8:3]/3b,,,,3,,3-7-4[8:3],,,,5,,5,,,,
3^5[8:1],,3-6[8:1],,3V14[4:1],,,,,,,,5pp1q5b[2:3]*qq1p5[2:3],,,,
Cf,,,,,,,,,,,,,,,,
,,,,,,,,,,,,,,,,
4/6,,4h[8:3]/6h[8:3],,,,,,,,,,3/5,,3h[8:3]/5h[8:3],,
,,,,,,,,E2,,,,,,,,
56,,5h[8:3]/6h[8:3],,,,,,,,,,4h[4:1]/3h[4:1],,,,
,,4h[4:1]/5h[4:1],,,,,,56,,,,E8,,,,
6bh[128:1]/5x,,6x-3[8:1]/5bv4[8:1],,6bh[128:1]/5x,,,,,,,,6bh[128:1]/5x,,6x-3[8:1]/5bv4[8:1],,
6bh[128:1]/5x,,,,,,,,6h[4:1],,,,5,,4/5<3[8:2],,
,,C/5^4p4^3[8:18],,,,,,,,,,,,,,
,,,,,,,,,,,,,,,,
,,,,,,,,,,5,,5b,,,,
4q8-5[4:1]/6,,,,3,,3qq3[4:1],,4,,6v5[8:1],,,,6-8-6[4:1],,
,,4,,4-1-4[4:1],,,,5,,5,,6,,,,
54,,3,,6,,5,,4,,3^5[8:1],,,,6-3-6[4:1],,
,,4,,4v7v4[4:1],,,,5,,5,,6,,,,
53,,3,,6h[8:1],,5h[8:1],,4-8-6[4:1],,5-3[8:1]/4,,,,,,
,,,,4,,5h[4:1],,,,4,,5/6h[8:1],,,,
4h[8:3],,5h[8:13],,,,,,Cf,,,,,,,,
6-3[4:2],,,,,,,,,,,,,,,,
4q8-5[4:1]/6,,5,,3,,3qq1^3[4:1],,4,,6v5[8:1],,,,6-8-6[4:1],,
,,4,,4-1V75[8:3],,,,43,,5b,,,,4,4,
5xh[8:1],,3,,6,,5,,4,,3-5[8:1],,,,6v3v6[4:1],,
,,4,,4p7q4[4:1],,,,5,,5,,6,,,,
53,,3,,6h[8:1],,5h[8:1],,4-8^6[4:1],,5qq3[8:1]/4,,,,,,
,,,,4,,5,,4h[8:1],,5,,5/6h[8:1],,,,
{24}3^2-7^6[16:27],5,4,{16}5,4,{12}5,4,5,{16}4,,5,,,,4h[4:2],,
,,,,,,,,3-6b[8:1],,,,3b,,,,
5,,5,,4V26[4:1],,3,,6V83[4:1],,5,,4,,5h[4:1],,
,,4,,6v1v6[4:1]/3,,3,,6^1^6[4:1]/4,,4h[8:1],,,,5,,
4,,4,,5V73[4:1],,6,,3V16[4:1],,4,,5,,4h[4:1],,
,,5,,3v8v3[4:1]/6,,6,,3^8^3[4:1]/5,,5,,4h[8:1],,,,
6^4[8:1],,6-3[8:1],,6V85[4:1],,,,,,,,,,4qq5[4:1]*q5[4:1],,
,,,,,,,,6,,6-3b[8:1],,,,,,
4p5[42.5#8:1],,,,,,,,,,,,,,,,
,,,,,,,,,,,,,,,,
{1},,,,
E
