&title=エータ・ベータ・イータ
&artist=ルゼ
&first=1.285
&des=チャン@DP皆伝
&wholebpm=186
&des_4=Jack
&des_5=チャン@DP皆伝
&lv_6=14?
&lv_7=纵
&inote_6=(186)
{8}1,1/1,,1/1,,1/1,,1/1,
,1/1,,1/1,,1/1,1,1/1,
,1/1,,1/1,,1/1,,1/1,
,1/1,,1/1,,1/1,1,1/1,
,1/1,,1/1,,1/1,,1/1,
1x/1x,,,1x/1x,,{16},1x/1x,,,1x/1x,,
{4}1h[4:5]/1h[4:5],,,,
,{16},,1,1,1,1,1,,1b/1b,,,,
1,,1,,1,,1,1,1,,1,,1,,1,,
1/1,,1,,1,,A1,A1,A1,A1,A1,,1x,,,,
1,,1,,1,,1,1,1,,1,,1,,1,,
1/1,,1,,1,,A1,A1,A1,A1,A1,,1x,,,,
1,,1,,1,,1,1,1,,1,,1,,1,,
1/1,,1,,1,,A1,A1,A1,A1,A1,,1x,,,,
1,,1,,1,,1,1,1,,1,,1,,1,,
1/1,,1,1,1h[8:3],,1,1,1h[8:1],,,,A1f/A1/A1,,,,
1,,1,,1,,1,1,1,,1,,1,,1,,
1/1,,1,,1,,A1,A1,A1,A1,A1,,1x,,,,
1,,1,,1,,1,1,1,,1,,1,,1,,
1/1,,1,,1,,1,1,1b/A1f,,,,1b/A1f,,,,
1,,1,,1,,1,1,1,,1,,1,,1,,
1/1,,1,,1,,A1,A1,A1,A1,A1,,1x,,,,
1,,1,,1,,1,,{12}1x,1x,1x,{16}1x,,,,
1,,1/1,,1,,1/1,,1,1,1,1,{8}1b,,
1h[4:1],,1>3[8:1],1,,,1,1,
1h[4:1],,1,1h[4:1],,1,1,1,
1q2[4:1],,1>5[4:1],,1-5[8:1],,,,
1,,1/1,,1/1,1/1,1/1,1/1,
1h[2:1],,1,1,,,1,1,
1/1h[4:1],,1h[8:1],1h[8:1],1h[8:1],1h[8:1],1h[8:1],1h[8:1],
1h[8:1],{16}1x<3[8:3],1x,{8},,,,,,
,1x/1x,1x/1x,1x/1x,1x/1x,1x/1x,1x/1x,1x/1x,
1,,1b/1b,,1/1,,1,1,
1h[4:3],,1,1,,1,1,1pp3[8:3]*qq7[8:3],
,,,,,,1p3[4:1],,
1p7[4:1],,,,1,1,1,1,
1p7[8:3],,1,1,,,1,1,
1,,1h[8:1],1h[8:1],1h[8:1],1h[8:1],1h[8:1],1h[8:1],
{16}1x,1x,,1x,1x,,1x,1x,,1x,{8}1x,1/1,1h[8:3]/1h[8:3],
,,,,{16}1,1,1,1,1b,,,,
{1}Ch[1:3]/1p6[2:1],1q4[2:1],1p7[2:1],1-4[2:1],
Ch[1:2]/1q3[2:1],1p6[2:1],
{8}1p7[2:1],,,,,,,1hx[8:5],
,{16},1hx[16:5],,,,,,,1x,1x,1x,1x,1x,,
1x/1x,,,1/1,,,1/1,,,1/1,,,1/1,,1x/1x,,
,1/1,,,1/1,,,1/1,,,1/1,,,1/1,,1x/1x,
,,1/1,,,1/1,,,1/1,,,1/1,,,1/1,,
1x/1x,,,1,1x,,,1,1x,,,1,1x,,1,1,
1,,1,,,,1,,1,,1,1,,,1,1,
,,1,,1,,,1,1,,1,1,,1,1,,
1,1,1,1,1,1,1,1,1,1,1,1,1,1,1,1,
1,1,1,1,1,1,1,1,{4}1b,,
1/1q5[4:3],1,1,1,
1,1,1,1b,
1/1p4[4:3],1,1,1,
1,1,1,1b,
1/1q5[4:3],1,1,1,
1,1,1,1b,
{16}1b,1,1,1,1,,,,1b,1,1,1,1,,,,
1b,1,1,1,1,,,,1b,1,1,1,1,,,,
1/1,,,,1/1,,,,1/1,,,,1/1,,,1/1,
,,1/1,,,1/1,,,1/1,,,1/1,,,1/1-4[8:11],,
{4},,,,
,,,A1f,
{16}1,1,1,1,1,,1/1,,1,1,1,1,1,1,1,1,
1,1,1,1,1,1,1,1,1,1,1,1,1,,,,
1,1,1,1,1,,1/1,,1,1,1,1,1,1,1,1,
1,1,1,1,1,1,1,1,1,1,1,1,1,,,,
1,1,1,1,1,1,1,1,1,1,1,1,1,1,1,1,
1,1,1,1,1,1,1,1,1,1,1,1,1,1,1,1,
1,1,1,1,1,,1/1,,1,1,1,1,1,1,1,1,
1,1,1,1,1,1,1,,{12}1x,1x,1x,{16}1x,,,,
A1f,,,,1,,1,,1,1,1,1,1,A1,A1,A1,
A1,A1,A1,A1,A1,A1,1,,1,1,1,1,1,,,,
1,1,1,1,1,,1,,1/1,,,1/1,,,1/1,,
,1/1,,,1/1,,,1/1,,,1/1,,1/1,,,,
1,1,1,1,A1,A1,A1,A1,1,1,1,1,A1,A1,A1,A1,
A1,A1,A1,A1,A1,A1,A1,A1,A1,A1,A1,A1,1,1,1,1,
{8}1/1,1/1,1/1,1/1,1/1,1/1,1/1,1/1,
{1}1/1>5[2:1],
{16}1,1,1,1,1,,1/1,,1,1,1,1,1,1,1,1,
1,1,1,1,1,1,1,1,1,1,1,1,1b,,,,
1,1,1,1,1,,1/1,,1,1,1,1,1,1,1,1,
1,1,1,1,1,1,1,1,1,1,1,1,1b,,,,
1,1,1,1,1,1,1,1,1,1,1,1,1,1,1,1,
1,1,1,1,1,1,1,1,1,1,1,1,1b,,,,
1,1,1,1,1,1,1,1,1,1,1,1,1,1,1,1,
1,1,1,1,1,1,1,1,1,1,1,1,1b,,,,
1b/1b,,,,1b/1b,,1b/1b,,,1b/1b,,,1b/1b,,,1b/1b,
,,1b/1b,,,1b/1b,,,1b/1b,,,A1f,,,,,
1b/1b,,,,1b/1b,,1b/1b,,,1b/1b,,,1b/1b,,,1b/1b,
,,1b/1b,,,1b/1b,,,1b/1b,,,A1f,,,,,
1,,,1,1,,,1,1,1,1,,1,1,1,1,
1,1,1,1,1,1,1,1,1,1,1,1,1,1,1,1,
1,,1,,1,,1,1,1,,,1,1,,1,,
1,1,1,1,1,,1,1,1b,,,,A1f,,,,
{1}1z5[4:5]/1-4[4:5],,1-4[4:5]*qq1[4:5],,
1-4[4:5]/1z5[4:5],,
{8}1/1,,1x/1x,,,1x/1x,,,
1x/1x,,,1x/1x,1x/1x,,A1f,,
,,{32}1x,1x,1x,1x,{16}1x,,,,,,1,1,1,1,
1,,,,{32}1x,1x,1x,1x,{16}1x,,,,,,1,1,1,1,
1,,,,1,1,1,1,1,,,,1,1,1,1,
1,,,,1,1,1,1,1,,,,1,1,1,1,
1,,,,1,,,,1,1,1,1,1,1,1,1,
1,,,,1,,,,1,1,1,1,1,1,1,1,
1,,,,1,,,,1,1,1,1,1,1,1,1,
1b,1,1,1,1,1,1,1,1b,1,1,1,1,1,1,1,
1b,1,1,1,1b,1,1,1,1b,1,1,1,1b,1,1,1,
1b,1,1b,1,1b,1,1b,1,1b,1b,1b,1b,{4}1bw5[8:1],
1b/A1f,
&inote_7=(186)
{8}1,1/1,,1/1,,1/1,,1/1,
,1/1,,1/1,,1/1,1,1/1,
,1/1,,1/1,,1/1,,1/1,
,1/1,,1/1,,1/1,1,1/1,
,1/1,,1/1,,1/1,,1/1,
1x/1x,,,1x/1x,,{16},1x/1x,,,1x/1x,,
{4}1h[4:5]/1h[4:5],,,,
,{16},,1,1,1,1,1,,1b/1b,,,,
1,,1,,1,,1,1,1,,1,,1,,1,,
1/1,,1,,1,,A1,A1,A1,A1,A1,,1x,,,,
1,,1,,1,,1,1,1,,1,,1,,1,,
1/1,,1,,1,,A1,A1,A1,A1,A1,,1x,,,,
1,,1,,1,,1,1,1,,1,,1,,1,,
1/1,,1,,1,,A1,A1,A1,A1,A1,,1x,,,,
1,,1,,1,,1,1,1,,1,,1,,1,,
1/1,,1,1,1h[8:3],,1,1,1h[8:1],,,,A1f/A1/A1,,,,
1,,1,,1,,1,1,1,,1,,1,,1,,
1/1,,1,,1,,A1,A1,A1,A1,A1,,1x,,,,
1,,1,,1,,1,1,1,,1,,1,,1,,
1/1,,1,,1,,1,1,1b/A1f,,,,1b/A1f,,,,
1,,1,,1,,1,1,1,,1,,1,,1,,
1/1,,1,,1,,A1,A1,A1,A1,A1,,1x,,,,
1,,1,,1,,1,,{12}1x,1x,1x,{16}1x,,,,
1,,1/1,,1,,1/1,,1,1,1,1,{8}1b,,
1h[4:1],,1>3[8:1],1,,,1,1,
1h[4:1],,1,1h[4:1],,1,1,1,
1q2[4:1],,1>5[4:1],,1-5[8:1],,,,
1,,1/1,,1/1,1/1,1/1,1/1,
1h[2:1],,1,1,,,1,1,
1/1h[4:1],,1h[8:1],1h[8:1],1h[8:1],1h[8:1],1h[8:1],1h[8:1],
1h[8:1],{16}1x<3[8:3],1x,{8},,,,,,
,1x/1x,1x/1x,1x/1x,1x/1x,1x/1x,1x/1x,1x/1x,
1,,1b/1b,,1/1,,1,1,
1h[4:3],,1,1,,1,1,1pp3[8:3]*qq7[8:3],
,,,,,,1p3[4:1],,
1p7[4:1],,,,1,1,1,1,
1p7[8:3],,1,1,,,1,1,
1,,1h[8:1],1h[8:1],1h[8:1],1h[8:1],1h[8:1],1h[8:1],
{16}1x,1x,,1x,1x,,1x,1x,,1x,{8}1x,1/1,1h[8:3]/1h[8:3],
,,,,{16}1,1,1,1,1b,,,,
{1}Ch[1:3]/1p6[2:1],1q4[2:1],1p7[2:1],1-4[2:1],
Ch[1:2]/1q3[2:1],1p6[2:1],
{8}1p7[2:1],,,,,,,1hx[8:5],
,{16},1hx[16:5],,,,,,,1x,1x,1x,1x,1x,,
1x/1x,,,1/1,,,1/1,,,1/1,,,1/1,,1x/1x,,
,1/1,,,1/1,,,1/1,,,1/1,,,1/1,,1x/1x,
,,1/1,,,1/1,,,1/1,,,1/1,,,1/1,,
1x/1x,,,1,1x,,,1,1x,,,1,1x,,1,1,
1,,1,,,,1,,1,,1,1,,,1,1,
,,1,,1,,,1,1,,1,1,,1,1,,
1,1,1,1,1,1,1,1,1,1,1,1,1,1,1,1,
1,1,1,1,1,1,1,1,{4}1b,,
1/1q5[4:3],1,1,1,
1,1,1,1b,
1/1p4[4:3],1,1,1,
1,1,1,1b,
1/1q5[4:3],1,1,1,
1,1,1,1b,
{16}1b,1,1,1,1,,,,1b,1,1,1,1,,,,
1b,1,1,1,1,,,,1b,1,1,1,1,,,,
1/1,,,,1/1,,,,1/1,,,,1/1,,,1/1,
,,1/1,,,1/1,,,1/1,,,1/1,,,1/1-4[8:11],,
{4},,,,
,,,A1f,
{16}1,1,1,1,1,,1/1,,1,1,1,1,1,1,1,1,
1,1,1,1,1,1,1,1,1,1,1,1,1,,,,
1,1,1,1,1,,1/1,,1,1,1,1,1,1,1,1,
1,1,1,1,1,1,1,1,1,1,1,1,1,,,,
1,1,1,1,1,1,1,1,1,1,1,1,1,1,1,1,
1,1,1,1,1,1,1,1,1,1,1,1,1,1,1,1,
1,1,1,1,1,,1/1,,1,1,1,1,1,1,1,1,
1,1,1,1,1,1,1,,{12}1x,1x,1x,{16}1x,,,,
A1f,,,,1,,1,,1,1,1,1,1,A1,A1,A1,
A1,A1,A1,A1,A1,A1,1,,1,1,1,1,1,,,,
1,1,1,1,1,,1,,1/1,,,1/1,,,1/1,,
,1/1,,,1/1,,,1/1,,,1/1,,1/1,,,,
1,1,1,1,A1,A1,A1,A1,1,1,1,1,A1,A1,A1,A1,
A1,A1,A1,A1,A1,A1,A1,A1,A1,A1,A1,A1,1,1,1,1,
{8}1/1,1/1,1/1,1/1,1/1,1/1,1/1,1/1,
{1}1/1>5[2:1],
{16}1,1,1,1,1,,1/1,,1,1,1,1,1,1,1,1,
1,1,1,1,1,1,1,1,1,1,1,1,1b,,,,
1,1,1,1,1,,1/1,,1,1,1,1,1,1,1,1,
1,1,1,1,1,1,1,1,1,1,1,1,1b,,,,
1,1,1,1,1,1,1,1,1,1,1,1,1,1,1,1,
1,1,1,1,1,1,1,1,1,1,1,1,1b,,,,
1,1,1,1,1,1,1,1,1,1,1,1,1,1,1,1,
1,1,1,1,1,1,1,1,1,1,1,1,1b,,,,
1b/1b,,,,1b/1b,,1b/1b,,,1b/1b,,,1b/1b,,,1b/1b,
,,1b/1b,,,1b/1b,,,1b/1b,,,A1f,,,,,
1b/1b,,,,1b/1b,,1b/1b,,,1b/1b,,,1b/1b,,,1b/1b,
,,1b/1b,,,1b/1b,,,1b/1b,,,A1f,,,,,
1,,,1,1,,,1,1,1,1,,1,1,1,1,
1,1,1,1,1,1,1,1,1,1,1,1,1,1,1,1,
1,,1,,1,,1,1,1,,,1,1,,1,,
1,1,1,1,1,,1,1,1b,,,,A1f,,,,
{1}1z5[4:5]/1-4[4:5],,1-4[4:5]*qq1[4:5],,
1-4[4:5]/1z5[4:5],,
{8}1/1,,1x/1x,,,1x/1x,,,
1x/1x,,,1x/1x,1x/1x,,A1f,,
,,{32}1x,1x,1x,1x,{16}1x,,,,,,1,1,1,1,
1,,,,{32}1x,1x,1x,1x,{16}1x,,,,,,1,1,1,1,
1,,,,1,1,1,1,1,,,,1,1,1,1,
1,,,,1,1,1,1,1,,,,1,1,1,1,
1,,,,1,,,,1,1,1,1,1,1,1,1,
1,,,,1,,,,1,1,1,1,1,1,1,1,
1,,,,1,,,,1,1,1,1,1,1,1,1,
1b,1,1,1,1,1,1,1,1b,1,1,1,1,1,1,1,
1b,1,1,1,1b,1,1,1,1b,1,1,1,1b,1,1,1,
1b,1,1b,1,1b,1,1b,1,1b,1b,1b,1b,{4}1bw5[8:1],
1b/A1f,
