&title=YOUNITHM
&artist=大国奏音
&first=0
&des=Team 天兔 -RE:VERSE-
&des_6=Team 天兔 -RE:VERSE-
&lv_6=15+
&inote_6=(130)
{1},3!<8[10.8333#12:1]b,3!q8[16.25#8:1]*q8[16.25#8:1],3!v8[32.5#4:1],,
6!>1[10.8333#12:1]b,6!p1[16.25#8:1]*p1[16.25#8:1],6!v1[32.5#4:1],,
{8}5b<5[1:2],,4h[8:1],,3h[8:1],,2h[8:1],,1h[8:1],,2,1,,8,,2,
5!<5[1:2]*<5[1:2]`1h[4:3],,,,,,,,
6,7,8,1h[8:1],,8,7,6,
5!<5[1:2]b,,4h[8:1],,3h[8:1],,2h[8:1],,1h[8:1],,2,1,,8,,7,
{2}5!<5[4:7]*<5[4:7]`1h[4:1],3h[4:1],5h[4:1],7h[4:1],
{4}1bv7v5v3v1[4:6]*<1[4:6]b,A8,A7,A6,A5,A4,A3,A2,
{16}6h[16:1],5h[16:1],4h[16:1],3h[16:1],6h[16:1],5h[16:1],4h[16:1],3h[16:1],
7h[16:1],5h[16:1],4h[16:1],2h[16:1],7h[16:1],5h[16:1],4h[16:1],2h[16:1],
7h[16:1],5h[16:1],3h[16:1],1h[16:1],7h[16:1],5h[16:1],3h[16:1],1h[16:1],
{32}7,6,5,4,6,5,4,3,5,4,3,2,4,3,2,1,
(260)
{8}8b,8,7/4h[8:1],7,8/3h[8:1],8,7/4h[8:1],7,6/3h[8:1],6,5/2h[8:1],5,6/1h[8:1],6,7/8h[8:1],7,
1h[4:2]/8,8,7,7,6,16,25,35,4h[4:2]/6,6,{16}5,6,7,8,{8}1,14,38,27,
6h[8:1]/1,1,5h[8:1]/2,2,63,73,4,84,3,83,74,4,73,63,2,62,
{16}5,3,5,3,5,,4,6,4,6,4,,3,,2,,
1,7,1,7,2,8,2,8,2,3,4,5,8,7,6,5,
{8}1b/4,1,2/5h[8:1],2,1/6h[8:1],1,2/5h[8:1],2,3/6h[8:1],3,4/7h[8:1],4,3/8h[8:1],3,2/1h[8:1],2,
8h[4:2]/1,1,2,2,3,53,64,54,7h[4:2]/3,3,{16}4,3,2,1,{8}8,87,61,52,
{16}2b,3,4,5,8,,7,,8b,7,6,5,1,,2,,1b,8,7,6,8,,7,,8b,1,2,3,1,,2,,
{8}3,3,24,24,15,15,68,68,
{8}7h[8:1],{24}8,1,2,{8}7h[8:1],{32}8,1,2,3,{8}7h[8:1],{40}8,1,2,3,4,{8}7h[8:1],{48}8,1,2,3,4,5,
{8}6b<1[8:1],,64,5,4-8[8:1],3,24,,
3>8[8:1],,{16}38,7,6,5,{8}4-8[8:1],,46,,
7>2[8:1],7,6,5,{16}4<7[8:1],5,{8}4,3,2,1>4[8:1],1,8,7-2[8:1],,6,5,4,
{16}3h[16:4],,,,2,1,8,7,6,5,47,36,25,14,3,2,
{8}1-5[8:1],,1/4,4>1[8:1]*-2[8:1],,4<7[8:1]*-6[8:1],,4,
8-4[8:1],,8/5,5<8[8:1]*-7[8:1],,5>2[8:1]*-3[8:1],,5,
{16}1<3[4:2],,,,B1,B2,E3,B3,B4,,E5,,Chf[4:1],,,,
{8},4h[8:1],5h[8:1],4h[8:1],5h[8:1],3h[8:1],6h[8:1],2h[8:1],
71,36,27,16,48,35,26,47,
{8}Cf,5h[8:1],4h[8:1],5h[8:1],4h[8:1],6h[8:1],3h[8:1],7h[8:1],
28,63,72,83,51,64,73,52,
{32}78,,,,78,6,5,4,,,,,21,,,,21,3,4,5,,,,,
78,,,,78,16,25,34,,,,,12,,,,21,3,4,5,6,7,8,1,{16}26,37,48,51,62,51,48,37,
{8}2/6x-1[8:1],6x,6x/4,3-8[8:1],3,3/5,6,5,
{16}4,5,3,6,2,7,1,8,2,1,3,8,4,7,5,6,
{48}5b,4,3,2h[48:15],,,6b,7,8,1h[48:9],,,,,,,,,,38,47,5h[48:9]/6h[48:9],,,,,,,,,,
47,38,1h[48:9]/2h[48:9],,,,,,,,,,38,47,5/6<3[48:27]b,,,
{16}6,5,4,6,5,4,5,4,5,4,6,5,6,,,,
{48}4b,5,6,7h[48:15],,,3b,2,1,8h[48:9],,,,,,,,,,61,52,4h[48:9]/3h[48:9],,,,,,,,,,
52,61,8h[48:9]/7h[48:9],,,,,,,,,,61,52,4/3>6[48:27]b,,,
{16}3,4,5,3,4,5,4,5,4,5,3,4,3,,,,
{48}8b,1,2,3h[48:15],,,7b,6,5,4h[48:9],,,,,,,,,,25,16,8h[48:9]/7h[48:9],,,,,,,,,,
16,25,4h[48:9]/3h[48:9],,,,,,,,,,25,16,8/7,,,
{48}2xb,3x,4x,5xh[48:9],,,1b,8,7,6h[48:15],,,,,,,,,,74,83,1h[48:9]/2h[48:9],,,,,,,,,,
83,74,5h[48:9]/6h[48:9],,,,,,,,,,74,83,1/2,,,
{6}2x-4-6-3[130#8:1]/1x,1x,1x,{8}1x/2x,,8,7,
{6}6p1[130#8:1],7,8,1,2,3,
{24}4b,5,6,7,4,,,,4,,,,4b,3,2,1,4,,,,4,,,,
4b,5,6,7,4,,,,3b,4,5,6,3,,,,2b,3,4,5,2,,,,
5b,4,3,2,6,,,,7,,,,8b,1,2,3,7,,,,6,,,,
4b/5b,36,27,1h[24:3]/8h[24:3],,,{4},1-6[8:1]/8-3[8:1],,
{12}1>5-3-1[4:2],,,,8,,7,,6,,7,,8<4-6-8[4:2],,,,1,,2,,3,,2,,
{16}2,3,4,5,{12}62,5,4,{16}36,4,5,6,74,6,5,4,
{32}6,5,3,4,6,5,3,4,6,5,3,4,6,5,3,4,7,6,2,3,7,6,2,3,8,7,1,2,8,7,1,2,
{4}8b/A7/A1/A3/A5/B1/B3/B5/B7/B8f/Ch[1:16]f,,B5,,B4,,B3,,A2,,B1,E2,,E1,,B7,
B8h[1:12],,A1,,A2,,A3,,B3,,E3,E4,,B5,,E5,
B5h[1:8],,E5,,B4,,B3,,A2,,B1,E2,,E1,,A1,
B1h[1:4],,,,B2h[2:1],,,,B3h[2:1],,,,B4h[1:1],,,,
{1}A2/A3/A6/A7/B2/B3/B6/B7,,,
{8},,E1,E2,E8,E3,E7,E4,
{48}5b$/6b,4h`7,3/8h,1$`2$,D1/D2f/D3,,,,,,,,{4},,,
{48}4b$/3b,5h`2,6/1h,8$`7$,D1/D8f/D7,,,,,,,,{4},,,
{48}5b$/6b,4h`7,3/8h,1$`2$,D1/D2f/D3,,,,,,,,{4},{48}4b$/3b,5h`2,6/1h,8$`7$,D1/D8f/D7,,,,,,,,{4},
{16}15,6,7,8,15,2,3,4,{32}15,6,7,8,1,2,3,4,{4}5b/1b-6[8:1],
{8}1/5b-1[8:1],5,2-5[8:1],2,7-2[8:1],7,3-7[8:1],3,
6-3[8:1],{16}6,7x,{8}8x-4[8:1],8,5-1[8:1],5,4,3,
{16}28,,3,4,3,,3,,{8}2b/5b,8b/7b,,1b/5b,
{16}1b/8b,2,37,4,56,4,37,2,81,7,62,5,43,5,62,7,
{8}1b/8b<5[8:1],,1-6[8:1],1,4-1[8:1],4,2>5[8:1],2,
{16}2,,,,61,58,47,36,{8}2-6[8:1]/5,,26,,
8-4[8:1],8,7-5[8:1],7,1-3[8:1],1,8-4[8:1],8,1bw5[8:1],,,,8w4[8:1]b,,,,
{8}1>4[8:1]b,,5<8[8:1],,{32}1,2,3,4,1,2,3,4,{8}15,37,
{8}8<5[8:1],,4>1[8:1]b,,{32}8,7,6,5,8,7,6,5,{8}84,62,
78,81,12,23,34,45,56,67,
{32}78,,,,8b/5b,74,63,52,14,,,,14,,,,36,,,,8b/5b,74,63,52,14,,,,14,,,,
{4}1>6[4:1],6<1-3[4:1]b,3>8-6[4:1],6-8>1[4:1]b,1x-6>4[4:1],4>7[4:1]b,7>2-4[4:1],4<4[4:2]*<4<4[4:4],
,,,,
{16}5,7,3,1,4,6,8,2,{32}3,4,5,6,7,8,1,2,{4}3b,
{8}1b/2b,12,83,83,74,74,6<3[4:3]/5,65,{16}4,5,3,6,4,5,3,6,4,5,3,6,4,,,,
{8}8b/7b,87,16,16,25,25,3>6[4:3]/4,34,{16}5,4,6,3,5,4,6,3,5,4,6,3,5,,,,
{24}1/4,2,3,4,5,6,7/2,8,1,2,3,4,5/8,6,7,8,1,2,3/6,4,5,6,7,8,
{24}4/1,3,2,1,8,7,6/3,5,4,3,2,1,8/5,7,6,5,4,3,2/7,1,8,7,6,5,
{16}3,4x,2,5,1,6,8,7,2,1,3,8,4,7,5,6,
{40}5,4,3,2,1,8,7,6,5,4,3,2,1,8,7,6,5,4,3,2,{24}1,2,1,2,1,2,1,2,1,2,1,2,
{4}1b-3[8:1],1-7[8:1],1>4[8:1]/5h[4:1],1<6[8:1],1-4[8:1]/6h[4:1],1-6[8:1],1>4[8:1]/7h[4:1],8<5[8:1],
8b-2[8:1]/3h[4:1],8-6[8:1],8>3[8:1]/4h[4:1],8<5[8:1]/3h[4:1],8-3[8:1],8-5[8:1]/2h[4:1],8>3[8:1],1x<6[8:1]/4h[4:1],
1b-3[8:1]/5h[4:8],1-7[8:1],1>4[8:1],1<6[8:1],1-4[8:1],1-6[8:1],1>4[8:1],8<5[8:1],
8b-2[8:1]/6h[4:1],8-6[8:1]/4h[4:1],8>3[8:1]/3h[4:1],8<5[8:1]/2h[4:1],8-3[8:1],8-5[8:1]/4h[4:1],8>3[8:1]/5h[4:1],1x<6[8:1]/6h[4:1],
{4}1b-3[8:1],1-7[8:1],1>4[8:1]/5h[4:1],1<6[8:1],1-4[8:1]/6h[4:1],1-6[8:1],1>4[8:1]/7h[4:1],8<5[8:1],
8b-2[8:1]/3h[4:1],8-6[8:1],8>3[8:1]/4h[4:1],8<5[8:1]/3h[4:1],8-3[8:1],8-5[8:1]/2h[4:1],8>2[8:1],1x/4h[4:1],
{8}3b/4,35,36,34,35,36,35,36,4b/5,46,47,45,46,47,46,47,
5b/6,57,58,56,57,58,57,58,{16}5b,6,5,6,5,6,5,6,{40}5,4,3,2,1,8,7,6,5,4,3,2,1,8,7,6,5,4,3,2,
{8}1/7b-4[8:1],7b,7b/1>4[8:1]/B5f,,1/5-2[8:1]/D3f,,5/8-5[8:1]/B3f,,
8-4[8:1]/1-3[8:1]/B7f,,8/1<6[8:1]/Cf/B2,,1/5/A7f,,3/5,2/4,
{8}8/2b-5[8:1],2b,2b/8<5[8:1]/B4f,,8/4-7[8:1]/D7f,,4/1-4[8:1]/B6f,,
1-5[8:1]/8-6[8:1]/B2f,,1/8>3[8:1]/Cf/B7,,8/4/A2f,,6/4,7/5,
4p8[8:1]/8p4[8:1],4/8,8>3[8:1]/4<7[8:1]/Cf,,4-1[8:1]/8-5[8:1]/D2f,,4-7[8:1]/8-3[8:1]/Cf,,
4-1[8:1]/8-5[8:1]/Cf,,4<7[8:1]/8>3[8:1]/Cf,,4/8/D6f,,4/8,4/8,
3b/7,3/7b,2b/6,2/6b,1b/5,1/5b,8b/4,8/4b,
1b-5[8:1]/5,1/5b,1b/7-3[8:1],7b,7/4b-8[8:1],4b,4/6b,6b,
{16}1b/8x,,5/7b,4b/6,3/5b,,1b/8x,,5/7b,4b/6,3/5b,,1b/8x,,5/7b,4b/6,
3/5b,,8/2b,,{32}1b,2,3,4,5/1b,8,7,6,5/1b,2,3,4,5/1b,8,7,6,5/1b,,,,,,,,
{16}8b/1x,,4/2b,5b/3,6/4b,,8b/1x,,4/2b,5b/3,6/4b,,8b/1x,,4/2b,5b/3,
6/4b,,1/7b,,{32}8b,7,6,5,4/8b,1,2,3,4/8b,7,6,5,4/8b,1,2,3,4/8b,,,,,,,,
2b,3,4,5,2,3,4,5,2,3,4,5,2,3,4,5,2,3,4,5,2,3,4,5,2,3,4,5,2,3,4,5,
8b,7,6,5,8,7,6,5,8,7,6,5,8,7,6,5,8,7,6,5,8,7,6,5,8,7,6,5,8,7,6,5,
1b/4,2,3,4,8,7,6,5,2,3,4,5,7,6,5,4,1,2,3,4,1,8,7,6,2,3,4,5,8,7,6,5,
4b,3,2,1,4b,5,6,7,4b,3,2,1,4b,5,6,7,{46}5bh[46:20]/8b,7,6,,4,3,2,1,8,7,6,,4,3,2,1,8,7,6,,4b,3b/6b,2b/7b,
(130)
{1}1b>6[4:14]b*q6[4:14]/8b<3[4:14]b*p3[4:14]/D1f`1!v6[4:14]`8v3[4:14],,,,
{8}5,4,2,5,4,2,6,5,2,6,5,2,{24}6,,,5,4,5,{8}6,3,
3,4,6,3,4,6,4,5,7,8,3,4`B4`C,,3,3,4,
{1}4-8[4:7]b*-1[4:7]*-7[4:7]/5-1[4:7]b*-8[4:7]*-2[4:7]`4!w8[4:7]`5!w1[4:7],
