&title=When Enemies Collapse
&artist=黒沢ダイスケ
&first=-0.2
&des=伍舟之雨
&lv_5=14+
&inote_5=(158)
{1},,
{16},,,,,,,,,,,,,,,,,,,,,,,,,,,,,,,,,,,,,,,,,,,,,,,,,,,,,,,,,,,,,,,,
{16}1/8,2,3,4,5,6,7,8,1/2xh[8:4],,,,,,,,
{16}7,5,6,,3-6[8:1],,,,2,,1,,,,2,,
{16}8/4,7,6,5,4,3,2,1,7xh[8:4]/8,,,,,,,,
{16}2,4,3,,6/5h[8:2],,,,7-4[8:1],,8,,7/2,,1,,
{16}1/5,2,3,4,7,6,5,4,2/3xh[8:4],,,,,,,,
{16}2,8,1,,7-4[8:1],,,,1,,2,,,,7/3,,
{16}8/2,3,4,5,8,7,6,5,4xh[8:4]/2,,,,,,3,,
{16}1,4,2,,8/3,,7,5,{24}6,7,8,2,3,4,5,6,7,8,1,2,
{16}3/5,5,4,6,5,,7,7h[8:1],,8,8h[8:1],,1,1/8,,,
{16}2,4,3,,2-5[8:1]/5,,6,6,,7,7-2[8:1],,8,4,7,,
{16}3,3,4,2,4,,1,1h[8:1],,8,8h[8:1],,7,7/8,,,
{16}2,6,4,,1/3,,7,6,5/2,,4,3,2/7,,,,
{16}1,6,5,7,5,,8,8h[8:1],,1,1h[8:1],,2,2/1,,,
{16}3,4,2,,1/5-8[8:1],,1,1,,2,2-5[8:1],,1,8,2,,
{16}7,7,5,6,6,,4,4h[8:1],,3,3h[8:1],,2,2/3,,,
{16}7,1,8,,2/6,,7,6,5/3,,4,3,6x/2,5x,3x,4x,
{16}7,,6/5,,2,,3h[8:3]/4,,,,4,,2,,,,
{16}3/4,,2,,3/4,,3h[8:1],,2<7[8:1],,,,2/5,,6>3[8:1],,
{16},,1/6,,2,,2,,3>2-5-1[8:2]/4,,,,8,,6,,
{16},,6,,1>4[8:1],,,,1/8,,7,,7,,5h[8:2],,
{16}3v1[8:1],,8p4[8:1],,3,,8b,,,,2,,4/3,,,,
{16}5/6,,6h[8:2],,7,,5,,7>2[8:1]/5,,,,7/4,,3<6[8:1],,
{16},,8/3,,7,,7,,6<7-4-8b[8:2]/5,,,,1,,3,,
{16},,3,,2-4[8:1],,1,,8<5[8:1]/2,,7,,3/8,,2,,
{16}1-6b[8:1],,2>5-8-3[8:2],,1,,2b,,,,7,,7,,,,
{16}4/6,,4h[8:1]/6,,3,,4/5,,4<7[8:1]/5,,,,2/4,,2h[8:2],,
{16},,1-7[8:1],,7-3[8:1],,6,,5V36[8:2],,,,2,,1,,
{16},,1,,3,,7-4[8:1],,2,,7,,1-4[8:1],,5,,
{16}1/7,,6w2[8:1],,5,,6xb,,,,1/8,,7/2,,,,
{16}5/3,,5h[8:1]/3,,6,,4/7,,4/7,,,,4/3,,5/2,,
{24}1,2,3,5,6,7,1,2,3,4,5,6,7/2,3,4,5,6,7,2,3,4,6,7,8,4,3,2,8,7,6,5,4,3,2/6,,,
{8}1x/5x,6x/2x,1bx-4b[8:1]`5x-8[8:1],2xw6[45#32:1]/6x,,,,,,,,,
{16}1/8,,7/2-6[8:1],,,,5,,,,5<8[8:1],,8>3[8:1],,5,,
{16},,4V61[8:2],,,,2,,{16}2,3,4,5,1x,2,3,4,
{16}1/5,,3/7-3[8:1],,,,4,,,,4>1[8:1],,1<6[8:1],,4,,
{16},,5-1[8:1],,,,5/6,,7-4[8:1]*-3[8:1],,8,,7,,,,
{16}2z6[8:2],,,,,,,,1,,1>4[8:1],,5,,1<6[8:1]/7,,
{16},,1/2,,2v5[8:1],,,,6,,8,,7,4,5,2,
{16}1bs5[8:2],,,,,,6,,8,,8<5[8:1],,,,2/8,,
{16}2-6[8:1],,1,,2,,8,,5,7,5,,2/4,,3,,
{16}6-1[8:1],5,6,5,6,,3,3h[8:1],,8,2>6[8:1],,7/1,,2/B5/B4/E5,,
{16},,1V35-7[8:2],,1,,,,8,,1,,C/B7/B2/E3,,,,
{16}3-8[8:1],4,3,4,3,,6,6h[8:1],,1,7<3[8:1],,2/8,,7/B4/B5/E5,,
{16},,1-5[8:1],,1,,,,{24}8,7,6,4x,3,2,7,6,5,4,3,2,
{16}1/7,7,8,6,6,,1,1h[8:1],,4,3-8[8:1],,7/5,,3x/4x,,
{16},,6,,7/8,,2,1,,3,5,,7-4b[8:1]/5,,8,8,
{16}2bh[8:1],,,,4,,5,,7/3,,7/3,,8/4,,8/4,,
{16}1/5,,1/5,,2/6,,2/6,,3,7,1,5,4qq5<4[8:16],8,2,6,A8/B8/Cf/B4/A4,,,,,,,,,,,,,,,,,,,,,,,,,,,,,,,,
{4}Ch[8:12],,,,,,2pp5[8:2],,
{16}6,6,4,,5x,3,7,,1/2-4[8:1],,8/1-5[8:1],,,,,,
{16}2,2,4,,1x,6,2,,7x,5,8,4,6,1,5,3,
{16}6,6,8,,7x,2,8,,4/3-1[8:1],,5/4-8[8:1],,,,,,
{16}2,2,8,,7x,5,6,,3x,4,1,8,5,7,2,4,
{16}3>8[8:1],3,6,,3-5[8:1],7,7,,3,,6,6,E3,E5,,,
{16}7,5,6-1[8:1],,6,4,6x,,2,3,4,5,1,2,3,4,
{16}1-7[8:1],1,6,,1>4[8:1],5,5,,1,,6,6,E5,E7,,,
{16}1x/2x,,7/5,,4/3,,8/6,,2x/7x,,,1x/3x,,,4bq5[8:6]/5b,,
{4},,,,
{16}7x/2x,,,,,,,,4xb<5b[8:1],,,,,,,,{24}6,4,5,3,5,{16}4,6,4,5,3,5,4,6,{24}2bh[24:1]/7h[24:1]bx,{16},,,,
{16}2-6[8:1],1,3,8,2,,7-4[8:1],7,,,3>6[16:3],,1,,3/4,,
{16},,5-1[8:1],,6h[8:1],,,,{24}8x,7,6,2,3,4,{16}7h[8:2]/5,,,,
{16}8-3[8:1],6,1,6,8,,5-1[8:1],5,,,6<3[16:3],,8,,6/5,,
{16},,4,,3h[8:1],,1,,2,8,1,,8/6,,4/5,,
{16}7-3[8:1],8,6,1,7,,2-5[8:1],2,,,6<3[16:3],,8,,6/5,,
{16},,4-7[8:1],,2,,1,,{24}1x,2,3,7,6,5,{16}2h[8:2]/4,,,,
{16}6p2[8:1],6,5,7,6,,8>3[8:1],8,,,8/7,,5-1[8:1],,1V36[8:2],,
{16},,6,,8,,,,7,5,6,2,4,5,6,7,
{16}2p6[8:1],2,1,3,2,,4-8[8:1],4,,,4/3,,1v3[8:1],,3p6[16:3],,
{16},,4,,2x,,,,{32}1,2,3,4,7,6,5,4,{16}1b,,{24}2,3,2,
{16}3b-6[8:1],,,,{8}3/7-3[8:1],8,2/7,1,4>1[8:1],6,
{8}8<5[8:1]/4,7,8w4[8:1],2,,,{16}3,5,3,5,
{8}4b-6[8:1],,4/7-4[8:1],8,3-7[8:1]/7,2,3/6-2[8:1],5,
{8}2-8[8:1]/6,3,2/7,,{32}2,3,4,5,8,7,6,5,2b,,,,{24}4,3,5,
{8}4b,,6/7,7/6,1/8,1/8,23,23,57,24,68,13,{16}4,6,2,8,3,5,1,7,
{16}2-7[8:1],4,3,4,2,,6,6,,1,7,,2,8,1>4[8:1],,
{16}2/5,,1,,6,,7,5/7,,2,42,,7,8,6,,
{16}1-5[8:1],5,3,7,1,,8,8,,4,6,,3,5,2>5[8:1],,
{16}1,7,2,,6<1[8:1],,4,4,6-2[8:1],,2,2,6,,,,
{16}1-6[8:1],8,2,7,1,,5,5,,8,7,,2,1,3-8[8:1],,
{16}6/5,,3,,7,,6,1/6,,3,83,,7,4,5,,
{16}2,6,5,8,3,,2/4,2/4,,7/5,7/5,,1,8,3>8[8:1],,
{16}2,4,3,,7<4[8:1],,1,1,7-3b[8:1],,2-8b[16:1],2,,,,,
{16}4x,1,4,1,7b,2,4,2,8b,3,4,3,1b,4,5,4,1b,3,5,3,7b,2,3,2,5b,4,7,6,8,1,4h[8:1],,
{16}2x,6,2,6,1b,7,4,7,2b,8,5,8,3b,1,5,7,2b,2,5,3,7b,7,1,8,2b,4,1,8,5b,6,1,8,
{16}2x,1,2,1,4b,8,2,8,5b,7,2,7,6b,8,1,8,5b,6,1,6,4b,7,8,7,3b,5,1,5,2b,3,2,,7,8,6,,1/2,,5/3,53,,6/8,68,,2,1,4,,7/8,1/6,2/5,,1/2,,7,3,{32}7/3x,6,5,4,3,2,1,8,7/3,4,5,6,7x/3x,
