&title=Yes, my master my lord
&artist=田村ゆかり
&first=0.24
&des=NO MAI NO DIFFER
&lv_5=13
&inote_5=(118)
{1},
{8},,,,,,
{16},,3,4,2q6[4:1],,,,8,,,,7<4[4:1],,,,3,,,,1p5[4:1],,,,5>2[4:1],,,,2p8[8:3],,,,,,,,
7<4[4:1],,,,5,,,,1s5[4:1],,,,7,,,,7p3[8:3]*q3[8:3],,,,,,,,,,,,,,,,
3bq5[4:1],,,4,3,,5,,7p5[4:1],,,5,7,,4,,
2qq5[4:1],,,4,2,,7V53[4:1],,7b,,,,,,
2,2,3pp7[4:1],,,1,3,,2,,8V24[4:1],,,,4V68[4:1],,,,8-2[8:1],,,,6h[4:1],,,,5,5,7,4,6,3,4,1w5[2:1],
{1},
{16}4-6[8:1],,3h[2:1],,4,,,,,,7,3,7,3,5,,
4V68[4:1],,3h[2:1],,4,,,,,,7,3,7,3,5,,
4-6[8:1],,3,,4pp3[8:3],,,,8<6[8:1],,,,,,,,4,,3,,24,,24,,35,,35,,7b,,,,
4-6[8:1],,3h[4:1],,4,,,,3,,73,,36,,35,,
4V68[4:1],,3h[4:1],,4,,,,2,,72,,26,,25,,
4-6[8:1],,,3,4qq5[8:3],,3,,7<5[8:1],,,,,,,,8<5[8:1],,5,,8>3[8:1],,
,,4pp1[4:1]/8,,,,,,,,
8b-5[4:1],,5,,8,,2,,1,,,4,3,,6,,
8<5[4:1],,5,,8,,2,,2,,,4,3,,6,,5V31[16:3],,,,5pp4[4:1],,,,5,,,,,,3,,
8<5[16:3],,1,,3>8[16:3],,,,3,,4,,6,,1,,
5b-8[4:1],,2,,5,,3,,4,,,8,2,,7,,
5<8[4:1],,2,,5,,3,,3,,,7,2,,6,,1>4[8:1],,,7,1,,5,,7,,6<1[8:1],4,,,46,,
2>5[8:1],,1,1,,,7,,1>4[8:1]/6p1[8:1],,,,1b/6b,,,,
8<4[4:1],,,,4q1[4:1],,,,1<5[4:1],,,,4b,,,,
1q6[4:1],,,,6>2[4:1],,,,2q7[4:1],,,,8b,,,,
1b<6[8:1],,,,1,,5b>2[8:1],,,,5,,8bs4[2:1],,,,
2,,,,2,,,,2,,2,,2,,2,4,
3pp6[8:3],,,,,,,,7,,,,7,,,,6qq3[8:3],,,,,,2,,2,,,,
2,2,4,4,
2>5[8:1],,,,4v1[8:1],,,,8<5[8:1],,,,7v4[8:1],,,,
1h[16:1],,1h[16:1],,5h[16:1],,5h[16:1],,2,6,3,7,4,8,5,1,5bv2[2:1]*v8[2:1],,,,
{4},,,
{8}1-3[8:1]/4-8[8:1],,1pp6[4:1]/4,,6>3[8:1],,7,7,
{16}8>3[8:1],,4,4,,5,5,,1<6[8:1],,5,5,,4,4,,5p1[8:1],,7,7,,6,6,,4q8[8:1],,2,2,,3,3,,
3-5[16:1]/7-5[16:1],,,,3pp7[4:1]/7,,,,6,,7,,8,,2,,
1-5[8:1]/6-8[8:1],,,,1/6qq3[4:1],,,,6,,,2,,,1,,
4<7[8:1],,1,1,,2,2,,4>1[8:1]/8-3[8:1],,,,,,,,5h[8:1],,1,,3h[8:1],,7,,
8<4[4:1],,,,4>8[4:1],,,,8<6[8:1],,,,4h[8:1],,,,2,,2,,6h[16:1],,6h[16:1],,
5-1[8:1],,6,6,5,,7,,4-2[12:1],,5,5,4,,5,,
3qq3[4:1],,4,4,3<6[8:1],,7,,8h[4:1],,,,,,5,,
1-6[8:1]/5,,4,4,,,2,,4/8-3[8:1],,5,5,,,7,,
3>8[8:1]/8p8[4:1],,,,8<5[16:3],,,,5p5[4:1]*>2[8:1],,,,,,,,1,,4,4,2h[8:1],,6,,7h[8:1],,5,,4,,6,,
7/3>8[8:1],,5,5,,,4,,2/6<1[8:1],,4,4,,,5,,
8pp5[8:3],,,,,,,,3q5[8:3],,,,,,,,8<5[2:1],,,,,,,,,,,,,,3,2,1>4[2:1],,,,,,,,,,,,8b,,,,
1-5[12:1],,4-2[12:1],,6,,,,7-3[12:1],,4-6[12:1],,2,,,,
2-6[12:1],,5-3[12:1],,7,,,,8h[4:1],,4,,2,,7,6,
5>2[16:3],,,,2q6[16:3],,,,8>3[16:3],,,,,,,,
5qq8[2:1],,,,,,,,1,,1,,2,2,6,6,4h[16:3],,,5,,,6,,7h[4:1],,,,5h[4:1],,,,3q7[8:18],,,,,,
2,1q5[16:29],8,
