&title=スーサイドパレヱド
&artist=ユリイ・カノン
&first=0.05
&des=劣等人类
&lv_5=14
&des_5=劣等人类
&inote_5=
(176){4},{8},,,,,,4h[16:3]/5h[16:3],
,,,,4/5,{4}5/4,
{16}6,5,{8}7-4[8:1],8x,7x,,2x/4x,{4}3/4,
{16}3,4,{8}2-5[8:1],1x,2x,,7x/5x,{4}6/5,
{16}6,5,{8}7-4[8:1],8x,7x,,1/2,{4}2/1w5[8:1],
{8}1,,,,,4/5,{16}3,4,{8}3,
{16}6,5,{8}6,{16}3,4,{8}2,{4}2h[4:1],{16}7,8,{8}6,
{16}2,1,{8}3,7-5[8:1],4-8[8:1],7,4,,1/7,
{16}7,8,{8}6,{16}2,1,{8}3,{4}3h[4:1],{8}4,5,
6/4,4/2,{16},7/5,,,{8}1/8,6xh[16:3],{16},5,{8}7,
4/8,3xh[16:3],{16},4,{8}2,1/5,6xh[16:3],{16},5,{8}7,
4/7,3/8,1/2,1b/2b,,7xh[16:3],{16},8,{8}6,
1/5,2xh[16:3],{16},1,{8}3,4/8,7xh[16:3],{16},8,{8}6,
1/6,2/7,8/3,4b/5b,,7/5-3[8:1],,2/5,
,2/4-6[8:1],,4/7,,7/5-3[8:1],4x,2/5,
,2/4-6[8:1],5x,7/4,{16},,2,1,2,1,{8}3b,
{16},,7,8,7,8,{8}6b,{16},,3,5,3,5,4,6,
4,6,4,5,3,6,2,7,{8}1,8x-2[8:1],,3/8,
,3/1-7[8:1],,1/6,,6/8-2[8:1],1x,3/8,
,3/1-7[8:1],8x,1/6,{16},,6,5,6,5,6,4,
5,4,5,3,4,3,4,3,5,4,6x,3x,7x,2x,8x,1x,
7x,2x,8x,1x,{8}7x,4b-6[8:1],,4/2-4[8:1],,2/8-2[8:1],
,8/7,{4}6h[4:1],2h[4:1],{16}1,2,{8}1,
{16}3,4,{8}3,4/5,6/5b-3[8:1],,5/7-5[8:1],,7/1-7[8:1],
,1/2,{4}3h[4:1],7h[4:1],{16}1,8,{8}2,
{16}8,1,{8}7,6/2,5/3,{16},,7,5,{8}8,{16}2,4,
{8}1,7,{4}7h[4:1],{8}4,7,8,1,
2,8-4[8:1],,8/2-6[8:1],,2/7-1[8:1],8,7/5-1[8:1],
4,5/8-4[8:1]*-3[8:1],7,8,{16},,8x,7x,6x,1x,2x,3x,
7x,6x,{8}4bx-8[8:1]/5bx-1[8:1],,4/5,,7/4-7[8:1],5,2/4-1[8:1],
3,4/8-4b[8:1],7,6/8,5,3,{16}1,8,{8}2b,
3x/7x,8x<5[8:1]/4x>1[8:1],1x/5x,4x/8x,,3x/4x,{16}2,1,{8}3,
4/5,8/7,{16}6,5,{8}7,1/8,7/2,{16}3,4,{8}1,
2/8,6/5,7b/1b,4b/3b,,2/5-2[8:1],4,7/5-8[8:1],
6,5/1-5b[8:1],2,3/1,4,6,{16}8,1,{8}7b,
6x/2x,1x>4[8:1]/5x<8[8:1],8x/4x,5x/1x,,6x/5x,{16}7,8,{8}6,
5/4,1/2,{16}3,4,{8}2,8/1,{16}3b,4,2,5,{8}8h[8:1],
{16}6b,5,7,4,{4}1h[8:1],{8},4/8-3[8:1],2,6/8-5[8:1],
7,8/4-8b[8:1],3,2/4,1,7,{16}4,5,{8}2b,
7x,8xV64[8:1]/4xV28[8:1],5x/1x,8x/4x,,7x/8x,{16}6,5,{8}7,
8/1,4/3,{16}2,1,{8}3,5/4,3/6,{16}7,8,{8}5,
6/4,2/1,3b/5b,8b/7b,,5/1-6[8:1],7,3/1-4[8:1],
2,1/5-1b[8:1],6,7/5,8,2,{16}5,4,{8}7b,
2x,1xV35[8:1]/5xV71[8:1],4x/8x,1x/5x,,2x/1x,{16}3,4,{8}2,
1/8,5/6,{16}7,8,{8}6,4/5,{24}A2,E3,B3,B4,E5,,,,,A7,
E7,B6,B5,{6}E5,{24},{8}Cf,,6h[4:1]/5h[16:3],,,4/5,
4h[4:1]/5h[16:3],,,4/3,4h[4:1]/3h[16:3],,,4/3,
4/5,5/6,5b/6b,,7h[4:1]/8h[16:3],,,1/8,
1h[4:1]/8h[16:3],,,1/2,1h[4:1]/2h[16:3],,,1/2,
8/3,7/4,6b/5b,,7<4[8:1]/2<7[8:1],,2/7v1>2-4[8:5],
,5x,,6-4[8:1],,6,,2>5[8:1]/7>2[8:1],
,7x/2xv8<7-5[8:5],,4x,,3-5[8:1],,3,
,2xV86[4:1],,6V42[4:1],,2V86[4:1],,6-4z8[8:3],
,8xh[4:1],,,,1x/6h[8:3],,,4,
5/3h[8:3],,5,,4h[8:1]/6h[8:1],,5h[8:1]/7h[8:1],
,6h[8:1]/8h[8:1],{16},7b/1b,,,,,{8}4/3,5,4/2,
6,5/1,8/7,7,5/6,4,5/7,3,
4/8,1/2h[4:1],,5,6,1/7,{16}1,1,{8}8,
8/2,7/3,{16}6,6,{8}5,{4}5/4h[8:1],{16}6,5,{8}7,
{16}2,1,{8}3,7,6,5,{16}3,4,3,4,2,5,
2,5,1,6,1,6,8,7,8,7,{32}1x,2,3,4,5,6,7,8,1,2,3,4,
5,6,7,8,{8}1bx,1b,1bw5[8:1],1b,1b,,7-3[8:1],
3-7[8:1],7,,1x,{4}1-5[8:1],{8}5/1,6,
7-3[8:1],3-5[12:1],7,2,1,{16}6x,8,6,8,7x,1,
7,1,8x,2,8,2,1x,3,1,3,6x,5,7,4,6,5,
6,5,6,7,8,4,3,2,{8}8bx/1bx,6,5,4/7,
3,4,2/5,1,8,1/8,E2/B1,B7,
B3/B4,E6,C,E7/B7,B3/E3,8x<5[8:1],1x,2x,
3x>8[8:1],4x,5x,6x>3[8:1],7x,{16}E8,E1,E2,E3,E4,E5,
E6,E7,E8,B1/E2,B7,B3/E4,{8}B5f,,2-5[8:1],1,2,
8-4[8:1]*-3[8:1],7,{4}8,6/5h[4:1],{16}7,5,{8}8,
{16}2,4,{8}1q6[8:1]*p5[8:1],1,1,,4h[8:1],{16}7,5,{8}8,
{16}2,4,{8}1,{4}6/8w4[8:1],8,{8}1-5[8:1],2-4[8:1],
1,2,6,7h[4:1],{16},,8,7,{8}8,{16}6,5,
{8}6,{16}3,4,{4}3-6[8:1],7h[4:1],{8}8,1,
2,1-5[8:1],,1/7-3[8:1],,7/2-8[8:1],1,2/4-8[8:1],
5,4/1-5[8:1]*-6[8:1],2,1,,2x-5[8:1],{16},1x,{8}2x,
7x,6bxp2[8:1]/4bxq8[8:1],,6/4,,1bpp6[2:1],,,,,,,{2}7bqq2[4:3],
{8},,,,,3b>8z4[2:1],,,,,,,{2}5b-1[4:1],
{24},,,E2,E3,E4,E5,E8,E7,E6,{12}E5,{8}3x,6x,,3/5,
{16},4,{8}3,{4}2/5,1h[4:1],{16}7,8,{8}6,
{16}2,1,{8}3,4,4h[4:1],{16},,5,4,,4,{8}6,
3/7-4[8:1],2,7,1,1h[8:1],{16}4,1,5,2,{8}6h[8:1],
{16}4,7,3,8,{8}2h[8:1],5,,3/8>3[8:1],1,5/8<5[8:1],
7,8/4-8b[8:1],3,4x/2,1,7,{16}4,6,{8}1b,
3x,4x-8[8:1]/7x-5[8:1],3x/8x,4x/7x,,1/2,{16}3,4,{8}2,
1/8,7/2,{16}6,5,{8}8,1/7,3/4,{16}2,1,{8}4,
5/3,7/8,4b/6b,2b/1b,,5/1<6[8:1],7,4/1>4[8:1],
2,1/5-1b[8:1],6,5x/7,8,2,{16}5,3,{8}8b,
6x,5x-1[8:1]/2x-4[8:1],6x/1x,5x/2x,,8/7,{16}6,5,{8}7,
8/1,2/7,{16}3,4,{8}1,8,{16}2b,1,3,8,{8}4h[8:1],
{16}7b,8,6,1,{8}5h[8:3],1-4[8:1],,1-5[8:1],6,1>3[8:1],
7,1-4[8:1],8,1-5[8:1],7,1<6[8:1],6,1>4[8:1],
5,7-2[8:1]/1-5[8:1],,1b/7b,,3,{16}3,4,{8}2,
1/5,6,{16}6,5,{8}7,8/4,3,{16}2,1,{8}2,
8/3,4/5,6b/3b,1bh[8:1]/8b-5[8:1],,8-4[8:1],3,8<6[8:1],
2,8-5[8:1],1,8-4[8:1],2,8>3[8:1],3,8<5[8:1],
4,8-3b[8:1]/2-6b[8:1],,8b/2b,{16},,4,5,4,5,4,5,
4,6,5,7,3,4,2,7,5,8,3b,4,2,5,{8}1h[8:1],
{16}6b,5,7,4,{8}8,3b/6b,{16},,3,5,3,5,4,6,
4,6,3,7,2,8,1-5[8:1],7,2,8,{8}1b,,4/6,
{16}3,3,{8}5,{16}6,6,{8}4,{4}7/3h[4:1],{16}7,8,{8}6,
{16}2,1,{8}3,7-5[8:1],4-8[8:1],7,4,,1/7,
{16}7,8,{8}6,{16}2,1,{8}3,{4}3h[4:1],{8}4,5,
6/4,2h[8:1]/4h[8:1],,2h[8:1]/8h[8:1],,6/5,{16}7,8,{8}7,
6/1,4/5,{16}2,1,{8}2,8/3,4/5,{16}6,5,{8}6,
4/7,1/8,2/5,8b/1b,,1/2,{16}3,4,{8}2,
1/5,6/8,{16}7,8,{8}6,1/5,2/4,{16}3,4,{8}2,
3/8,{24}8,7,6,5/1,2,3,4/8,7,6,{8}5/4,{16}2b,1,3,8,{8}5h[8:1],
{16}7b,8,6,1,{8}4h[8:1],{16}1b-5[8:1],7,3,5,{8}1,
E
