&title=Oynasun
&artist=新疆美丽公主组合
&first=0.22
&des=ئوپىئوۋولست
&lv_5=13
&inote_5=(98)
{1},,
{8}1h[4:1],4,7h[4:1],4,1h[4:1],4,7h[4:1],4,
2h[4:1],5,8h[4:1],5,2h[4:1],5,8h[4:1],5,
3h[4:1],2,6h[4:1],7,3h[4:1],2,6h[4:1],7,
1h[4:1],2,8h[4:1],7,1h[4:1],2,8h[8:1],7,
{16}3/6,5,4,5,3h[8:1],,1,,4-1[16:1]/5,,3,,4/5-8[16:1],,6,,4/5,,
3,3,2h[8:1],,1,,4h[8:3]/6,,7,,8-4[16:1],,1,,8/2,,3,3,2h[8:1],,1,,
4/5h[8:1],,2,,4h[8:1]/5-7[16:1],,7,,4-2[16:1]/5,,,,4/5-1[16:1],,,,
4-8[16:1]/5,,,,4/5,,5,,1p6[8:1]/6,,,,,,,,
7h[4:1],,,4,2h[4:1],,5,,4,3,5,4,6h[8:1],,
7-2[8:1],,2-7[8:1],,4h[4:1],,,,,,
2h[4:1],,,5,7h[4:1],,4,,2h[4:1],,,5,7h[8:1],,3,,
6,4,7,5,8z4[8:3],,1,,6h[4:1],,,,,,
8,,8,,3,4,2h[4:1],,4,,7h[4:1],,5,,2h[8:1],,4,,
1h[8:1]/2,,3,4,8h[8:1]/7,,6q3[8:1],5,3p6[8:1],,4h[4:1],,,,,,
4/5,,6,5,7h[4:1],,5,,2h[4:1],,4,,
7h[8:1],,5,,8h[8:1]/7,,6,5,1h[8:1]/2,,3,4,6h[8:1],,
4h[8:1],,{32}8p5[8:1],7,6,5,4,3,2,1,4/8,,,,,,,,
{16}2/4,,5/7,,2h[4:1],,,4,7h[4:1],,5,,5,6,4,5,3-6[8:1],,
6p3[16:3],,5h[4:1],,,,,,8,,
7h[4:1],,,5,2h[4:1],,4,,7h[4:1],,,5,2h[8:1],,4,,
1,3,2,4,3-6[8:1],,6p3[16:3],,5h[4:1],,,,,,8,,
3/6h[4:1],,1,2,3h[4:1],,8,7,6h[4:1],,1p5[8:1],2,3h[8:1],,1,,
8,,2/6,3/7,4qq1[4:1]/8qq5[4:1],{32},3,4h[16:1],,,,
{16},,,,,,7,,1h[4:1]/8,,6,7,8h[4:1],,3,2,1h[4:1],,6p1[8:1],7,8h[8:1],,6,,
8,,3/7,2/6,1pp4[4:1]/5pp8[4:1],{32},6,5h[16:1],,,,
{16},,,,,,5/6,,3/4,,2,5,3/4,,4,5,3/7,
{32}4,5,4,,3,,2-5[16:1]/7,,,,3,,4,,2/6,,,,4,,5,,1,,,1,8,,
8,,2/5,,3,4,3,,2,,1/6,,,,3/8,,,,4/5,,,,1,,8,,4,5,4,,6,,2,,
5,4,5,,3,,7,,3,4,3,,5,,1,,6,5,6,,4,,8,,1,8,1,,3,,6,,
4/5,,,,6/7,,,,1/8,,,,2/3,,,,2v4[8:1]/6,,4,4,4p8[8:1],,3,,2/6,,,,,,,,
7h[16:1],,1h[16:1],,7h[16:1],,1h[16:1],,8h[8:1],,,,
6,,,,2h[4:1]/7,,,,4,,5,,7h[4:1],,,,5s1[8:1],,3,,1s5[8:1],,,,
3h[8:1],,,,,,,,2,,,,2/7h[4:1],,,,5,,4,,2h[8:1],,,,4,,5,,
6-1[16:1],,5,,6,,5,,6,,,,3,,,,2-5[16:1]/7,,,,
1,,8,,2/7-4[16:1],,,,8,,1,,2/7,,,,5,,2h[16:3],,4-1[16:1],,,,7h[8:1],,,,
{16}4,6h[8:1],,2,8pp4[4:1],1,7,,7h[8:1],,,,5,,1,,
3,7,2,6,1-6[8:1],,6-1[8:1],,1-4[8:1],,,,,,7h[8:1],,
5,3h[8:1],,7,1qq5[4:1],8,2,,2h[8:1],,,,4,,8,,
6,2,7,3,8-3[8:1],,3-8[8:1],,8-5[8:1],,,,,,2h[8:1],,
4,,7,8,7h[8:1],,5,,2h[4:1],,4,,7h[4:1],,5,,
2-7[8:1],,7-2[8:1],,2-5[8:1],,5<4[4:1],,,,,,,,
7,,4/5,,7,1,8h[4:1],,6,,1h[4:1],,3,,8h[4:1],,6,,
1q6[8:1],,6p1[8:1],,8h[8:1],,,,6h[8:1],,
4h[8:1],,{32}8p5[8:1],7,6,5,4,3,2,1,4/8,,,,,,,,
{16}3/4,,5/6,,2h[4:1],,,4,7h[4:1],,5,,5,6,4,5,3-6[8:1],,
6p1[16:3],,5h[4:1],,,,,,4,,
7h[4:1],,,5,2h[4:1],,4,,7h[4:1],,,5,2h[8:1],,4,,
1,3,2,4,3-6[8:1],,6p1[16:3],,5h[4:1],,,,,,4,,
1h[8:1],,3,2,8h[8:1],,6,7,1h[4:1],,3,,8h[4:1],,6,,
1h[8:1],,4,3,7h[8:1],,5,,1-5[8:1]/8-4[8:1],,4pp6[8:1]/5qq3[8:1],,,,,,
,,1,8,6h[8:1],,8,1,3h[8:1],,1,8,5h[8:1],,8,1,4h[8:1],,
1,8,5h[8:1],,2,,1-5[8:1]/8-4[8:1],,2/7,,1/8,,,,
3-7[4:1],7,1h[8:1],,3,,,,3h[16:1],2,,6h[16:1],7,,
2h[16:1],1,7h[16:1],8,,
7h[16:1],6pp4[8:3],,,,,,,,,,,,
4,3,2,1h[32:5],,{32},3,,{16}1h[8:1],,7,1h[8:1],,{32}3,,
{16}2/4,3/5,4/6,5/7,1,,,{128},,,,,,,
{16}2,,,,4,,,,6,,,,
3>8[4:1]/8p3[4:1],,,,,,,,,,,,6,,,,
1q6[4:1]/6<1[4:1],,,,,,,,,,,,3,,,,
4/5-8[8:1]*q2[8:1],,,,,,,,
4p7[8:1]*-1[8:1]/5,,,,,,,,
4pp6[8:1]*qq2[8:1],,,,4,,,,
5pp7[8:1]*qq3[8:1],,,,5,,,,
{32}5,,1,2,3h[8:1],,1,,6h[4:1],,,,8,,,,
3-8[16:1],,4,,3,,4,,3,,,,5,,,,
1h[8:1],,2,3,4,,6,,8h[8:1],,7,6,5,,3,,
1,2,3,4,5,6,7,8,1,2,3,4,5,6,7,8,1/5,,
4,3,4,,2,,6,5,6,4,5,4,5,3,4-8[16:1],,3,,4,,3,,4,,,,,,,,
1-5[8:3],,1,2,3,,8,7,6,,2,3,4,,7,6,5,,,,,,8,,6h[8:1],,,,1,,,,
{16}4b/5b,,,,4-1[16:1]/5-8[16:1],,4/5,,4/5,,,6,
1h[4:1],,6,,8h[4:1],,,3,1h[8:1],,6,,2-7[8:1],,7-2[8:1],,5h[8:1],,,,
1s5[8:1],7,3,5,1,,7h[8:1],,2h[4:1],,,4,7h[8:1],,5,,
2,6,3,7,4h[8:1],,8p3[8:1],,3q8[8:1],,,,,,1h[8:1],,
8<5[16:1],,8,1,8-4[16:1],,8,1,8,,3,2,1h[8:1],,3,,
8h[8:1],,1,6,4/5,,2-7[8:1]/6-3[8:1],,3-6[8:1]/7-2[8:1],,,,,,,,
1>4[16:1],,1,8,1-5[16:1],,1,8,1,,6,7,8h[8:1],,6,,
1h[8:1],,8,2,4/5,,3-6[8:1]/7-2[8:1],,2-7[8:1]/6-3[8:1],,,,,,,,
2-5[16:1]/7,,1,8,2/7-4[16:1],,8,1,2q7[8:1]/7,,
7p2[8:1],,5h[8:1],,,,5,,3,6,2/7,,1-5[16:1]/8-4[16:1],,4qq1[8:1]/5pp8[8:1],,1/8,,,,
