&title=テトリス
&artist=柊マグネタイト
&first=0.06
&des=暮呓
&lv_4=11+
&inote_4=(170)
{1},
{4}1/5,2,3,4,
{4}5/1,6,7,8,
{4}1/5,2,3,4,
{4}B1,B3,B5,B7,
{4}8/4,7,6,5,
{4}4/8,3,2,1,
{4}8/4,7,6,5,
{4}B8,B6,B4,B2,
{8}8-4[8:1],,,,2,2,2,,
{8}7-3[8:1],,,,1,1,1,,
{8}6-2[8:1],,,,8,8,8,,
{4}E5,E3,E1,E7,
{8}1-5[8:1],,,,7,7,7,,
{8}2-6[8:1],,,,8,8,8,,
{8}3-7[8:1],,,,1,1,1,,
{8}E5,E6,E7,E8,E1,E2,E3,E4,
{8}6h[4:3],,7,8,1,2,3,,
{4}6b/1b,3b/8b,7b/4b,2b/5b,
{8}3h[4:3],,2,1,8,7,6,,
{4}7b/4b,2b/5b,6b/1b,3b/8b,
{8}7qq4[8:3],,,,1,1,1,,
{8}2pp5[8:3],,,,8,8,8,,
{8}6qq3[8:3],,,,1x,1x,1x,,
{16}4hx[16:3],,,3h[16:3],,,2,,B6,,B4,,B2,,B8,,
{16}5hx[16:3],,,6h[16:3],,,7,,B3,,B5,,B7,,B1,,
{1}8xV64[2:1]/4xV28[2:1],
{4}E8/B8/B7,E4/B4/B3,Cf/B7/B6/B2/B3,,
{8}8x-5[8:1],,2,3,4-1[8:1],,6,7,
{8}8-5[8:1],,2,3,4-1[8:1],,6,7,
{8}8-5[8:1],,2,3,4-1[8:1],,7-2[8:1],,
{4}3-6[8:1],8-5[8:1],,,
{8}1-4[8:1],,7,6,5-8[8:1],,3,2,
{8}1-4[8:1],,7,6,5-8[8:1],,3,2,
{8}1-4[8:1],,7,6,5-8[8:1],,2-7[8:1],,
{4}6-3[8:1],4-1[8:1],,,
{8}1^6[8:1],2,3,4,5^2[8:1],6,7,8,
{8}1^6[8:1],2,3,4,5^2[8:1],6,7,8,
{8}1^6[8:1],2,3,4,5-8[8:1],,2-7[8:1],,
{4}6-3[8:1],4-1[8:1],,,
{8}8^3[8:1],7,6,5,4^7[8:1],3,2,1,
{8}8^3[8:1],7,6,5,4^7[8:1],3,2,1,
{8}8^3[8:1],7,6,5,4-1[8:1],,7-2[8:1],,
{4}3-6[8:1],8-5[8:1],,,
{1}7q2[2:1]/3q6[2:1],
{2}5hx[2:1],2,
{2}4h[2:1],7,
{16}7x,8x,7x,8x,7x,,2x,1x,2x,1x,2x,,5x,4x,5x,4x,
{8}5x,E6,E7,E8,E1,E2,E3,E4,
{2}1hx[2:1],3,
{2}8h[2:1],6,
{16}3x,4x,3x,4x,3x,,6x,5x,6x,5x,6x,,1x,8x,1x,8x,
{4}1x-5[8:1],8-4[8:1],,,
{8}7h[4:3],,6,5,4,3,2,,
{4}7h[8:1]b/4h[8:1]b,2h[8:1]b/5h[8:1]b,6h[8:1]b/1h[8:1]b,3h[8:1]b/8h[8:1]b,
{8}2h[4:3],,3,4,5,6,7,,
{4}6h[8:1]b/1h[8:1]b,3h[8:1]b/8h[8:1]b,7h[8:1]b/4h[8:1]b,2h[8:1]b/5h[8:1]b,
{8}7pp4[8:3],,,,3,3,3,,
{8}2qq5[8:3],,,,6,6,6,,
{8}7pp2[8:3],,,,4x,4x,4x,,
{16}5hx[16:3],,,6h[16:3],,,7,,B3,,B5,,B7,,B1,,
{16}4hx[16:3],,,3h[16:3],,,2,,B6,,B4,,B2,,B8,,
{1}1xV35[2:1]/5xV71[2:1],
{4}E2/B1/B2,E6/B5/B6,Cf/B7/B6/B2/B3,,
{8}1x-4[8:1],,7,6,5-8[8:1],,3,2,
{8}1-4[8:1],,7,6,5-8[8:1],,3,2,
{8}1-4[8:1],,7,6,5-8[8:1],,2-7[8:1],,
{4}6-3[8:1],4-1[8:1],,,
{8}8-5[8:1],,2,3,4-1[8:1],,6,7,
{8}8-5[8:1],,2,3,4-1[8:1],,6,7,
{8}8-5[8:1],,2,3,4-1[8:1],,7-2[8:1],,
{4}3-6[8:1],8-5[8:1],,,
{8}8^3[8:1],7,6,5,4^7[8:1],3,2,1,
{8}8^3[8:1],7,6,5,4^7[8:1],3,2,1,
{8}8^3[8:1],7,6,5,4-1[8:1],,7-2[8:1],,
{4}3-6[8:1],8-5[8:1],,,
{8}1^6[8:1],2,3,4,5^2[8:1],6,7,8,
{8}1^6[8:1],2,3,4,5^2[8:1],6,7,8,
{8}1^6[8:1],2,3,4,5-8[8:1],,2-7[8:1],,
{4}6-3[8:1],4-1[8:1],,,
{8}6/8,3,7,4,8/2,5,1,6,
{8}2/4,7,3,8,4/6,1,5,2,
{8}6/8,3,7,4,2/8-5[8:1],,3-6[8:1],,
{4}7-2[8:1],4-1[8:1],,,
{8}3/1,6,2,5,1/7,4,8,3,
{8}7/5,2,6,1,5/3,8,4,7,
{8}3/1,6,2,5,7/1-4[8:1],,6-3[8:1],,
{4}2-7[8:1],5-8[8:1],,,
{8}6/8,3,7,4,8/2,5,1,6,
{8}2/4,7,3,8,4/6,1,5,2,
{8}6/8,3,7,4,2/8-5[8:1],,3-6[8:1],,
{4}7-2[8:1],4-1[8:1],,,
{8}3/1,6,2,5,1/7,4,8,3,
{8}7/5,2,6,1,5/3,8,4,7,
{8}3/1,6,2,5,7/1-4[8:1],,6-3[8:1],,
{4}2-7[8:1],5-8[8:1],,,
{8}3b/1,6,2,5,1b/7,4,8,3,
{8}7b/5,2,6,1,5b/3,8,4,7,
{8}3b/1,6,2,5,7/1b-4[8:1]b,,6b-3[8:1]b,,
{4}2b-7[8:1]b,5b-8[8:1]b,Cf,,
E
