&title=Corruption
&artist=3R2
&first=0.02
&des=CorrupteD
&lv_5=13
&inote_5=(170)
{4},,,,
2z6[4:6]/7s3[4:6],,,,,,,,
{4}4/5h[4:4],3,2,1,8,7,6,5,4/3h[4:1],
{8}4,2,5,3,6,4,
7,7,12,7,23,7,34,7,
{4}5/4h[4:4],6,7,8,1,2,3,4,
{8}56,5,57,7,4,6,3,5,
2,2,81,2,81,3,18,4,
{4}1/8h[4:4],2,3,4,5,6,7,8,1/2h[4:1],
{8}1,3,8,2,7,1,
6,6,43,6,32,6,21,6,
8/1,
{16}6,5,6,,3,4,3,,6,5,6,,3,4,2,,7,5,7,,2,4,2,,7,5,7,,2,4,
{8}1,1,1,1,
{16}1,2,3,4,
{32}8,7,6,5,4,3,2,1,
{8}6h[4:1]/8,,3h[4:1],,4h[8:1],5h[8:9],1-7[8:1],,
{4}1>4[8:1],1v6[8:1],1,
{8}7>2[8:1],1h[8:5],{4}7<4[8:1],7,
{16}4,5,6,7,1,2,3,4,
{4}5-2[8:1]/1h[4:3],5-7[8:1],5,
{8}3>8[8:1],7h[8:5],{4}3<6[8:1],3,
{8}8-4[8:1],4,2-6[8:1]/8-6[8:1],,8b>3[8:1]/2b,,,,
1-5[8:1],,1/6-2[8:1],7,6/4>1[8:1]*<7[8:1],,4,,
{16}2,4,2,4,{12}1h[12:1],5h[12:1],3h[12:1],
{16}7,,7,,7,,3,4,2,7,5,6,,,6,5,7,,7,,7,,7,5,6,3,4,2,
{16}8-3[8:1],,,,
{4}8<5[8:1]/4h[4:3],8v3[8:1],8,
{8}2<7[8:1],8h[8:5],{4}2>5[8:1],2,
{16}5,4,3,2,8,7,6,5,
{4}4-7[8:1]/8h[4:3],4-2[8:1],4,
{8}6<1[8:1],2h[8:5],{4}6>3[8:1],6,
{8}8,4,17,5,82,{16}1,1,1-5[8:1],,{8},
{8}1b/7b-4[8:1],,1-4[8:1]/7-2[8:1],1,1<5[6:1]/7,,1,,
{12}3h[12:1],5h[12:1],3h[12:1],{8}7,7,
{16}2,,2,,2,,6,5,7,2,4,3,,,3,4,2,,2,,2,,2,4,3,6,5,7,
{4}1-5[8:1],
{8}1b/8V61[4:1],,8,2,4V25[4:1],,4,7,
6-1[8:1],5-2[8:1],6,5,
{16}1,8,7,6,4-8[8:1],3,2,1,
{8}4V25[4:1],,4,1,8V61[4:1],,8,3,2-5[8:1],7-2[8:1],2,7,
{16}5,6,7,8,1,2,3,4,
{8}5h[8:1]/6<4[4:1],8h[8:1],6,,6<4[4:1],8h[8:1],6,,6<3[24:5],8h[8:3],6,,
{32}4,5,6,7,8,1,2,3,{4}4-1[8:1],
{8}4/7>2[8:1],6,7/4-1[8:1],,4/7>2[8:1],6,7-5[8:1]/4-8[8:1],,
{4}4-2[8:1]/7-2[8:1],7-5[8:1]/4-8[8:1],47,1b,
{4}1h[8:1]/5h[8:1],
{8}5-1[8:1],1-5[8:1],5,,2-6[8:1],6-2[8:1],2,,7-4[8:1],3-8[8:1],7,3,
{16}7,6,5,4,
{4}1h[8:1],
{8}7-2[8:1],2-7[8:1],7,,3-6[8:1],6-3[8:1],3,,7,2,
{16}6,4,6,4,{12}7h[12:1],5h[12:1],7h[12:1],
{4}5h[8:1],
{32}8<4[8:1],7<3[8:1],6>2[8:1],5>1[8:1],,,,,{4}8,{32}8<4[8:1],7<3[8:1],6>2[8:1],5>1[8:1],,,,,{4}8,{32}8,7,6,5,,,,,
{16}2,4,2,4,
{8}1,1,
{4}1/4h[8:1],
{32}1>5[8:1],2>6[8:1],3<7[8:1],4<8[8:1],,,,,{4}1,{32}1>5[8:1],2>6[8:1],3<7[8:1],4<8[8:1],,,,,{4}1,
{8}13,86,1z5[4:1]/3,,,,
{4}3,3,3,3,2,2,2,2,8/1-4[8:1],
{8}8-5[8:1],8,3-5[8:1],3,6-1[8:1],6,2-4[8:1],2-8[8:1],2-6[8:1],,,7,75,,
{4}6,6,6,6,7,7,7,7,
{8}8v5[8:1],8,1-4[8:1],1,6-4[8:1],6,3-8[8:1],3,7-3[8:1],6-4[8:1],7,6,2,2,
{16}8,7,6,5,
{8}43,3,31,3,38,3,37,3,
36,6,68,6,61,6,62,6,6/3-5[8:1],,
{8}3,6,7-5[8:1],8-4[8:1],7>2[8:1],8,7-5[8:1],3,7>2[8:1],3,7-5[8:1],3,7,,
{16}4,5,4,5,3,7,3,7,1,8,1,8,1,8,
{16}2,7,
{16}1,8,1,8,2,6,2,6,4,5,4,5,4,5,
{32}4,3,2,1,
{32}8b,7,6,5,,,,,7b,6,5,4,,,,,6b,5,4,3,,,,,5bp4[4:1],4,3,2,,,,,
{8},,2b-4[8:1],4b-8[8:1],8b-6[8:1],6b-2[8:1],,,
{8}4>1[8:1],,3h[4:1],,8<5[8:1],,7h[4:1],,
4-8[8:1],2-5[8:1],4,2,7V16[4:1],,7,4,
5h[4:1],,1,1,3h[4:1]/4,,8,8,17,17,2-6[8:1]/6-2[8:1],26,,,
7V51[4:1],,5,4,3V15[4:1],,1,8,7,6,5-1[8:1],4-2[8:1],5,4,8-6[8:1],1-5[8:1],8,1,
7q4[8:1],,5>2[8:1],,5q2[8:1],,3>8[8:1],,3<6[8:1]*q7[8:1],,,,
{16}81,2,83,4,58,6,78,,
{8}1b/2b,1h[4:1]/2h[4:1],,,1>4[8:1],,2h[4:1],,
5-1[8:1],7-4[8:1],5,7,2V83[4:1],,2,5,
4h[4:1],,8,8,6h[4:1]/5,,1,1,82,82,7/3,46,
{12}6h[12:1],4h[12:1],8h[12:1],
{8}2bV48[4:1],,4,5,6V84[4:1],,8,1,2,3,4-8[8:1],5-7[8:1],4,5,1-3[8:1],8-4[8:1],1,8,
2p5[8:1],,4<7[8:1],,4p7[8:1]*>8[8:1],,4,,
{12}6,5,6,3,4,3,8h[4:1],,,{4}
{4}1-5[8:1],
{8}1b/8-6[8:1],6-1[8:1],8,2,4-2[8:1],2-5[8:1],4,7,
6-1[8:1],3-6[8:1],6,3,
{16}1,8,7,6,4-8[8:1],3,2,1,
{8}4-2[8:1],2-5[8:1],4,1,8-6[8:1],6-1[8:1],8,3,2-5[8:1],7-2[8:1],2,7,
{16}5,6,7,8,1,2,3,4,
{8}5h[8:1]/6<4[4:1],8h[8:1],6,,6<4[4:1],8h[8:1],6,,6<3[24:5],8h[8:3],6,,
{32}4,5,6,7,8,1,2,3,{4}4-8[8:1],
{8}4/7>2[8:1],5,7/4-8[8:1],,4/7>2[8:1],5,7-5[8:1]/4-8[8:1],,
{4}4b-2[8:1]/7b-2[8:1],7b-5[8:1]/4b-8[8:1],4b/7b,1b,
{4}1h[8:1]/5h[8:1],
{16}1>5[4:1]/5,2>6[4:1]/6,3<7[4:1]/7,4<8[4:1]/8,,,,,1>5[4:1],2>6[4:1],3<7[4:1],4<8[4:1],,,,,1,2,3,4,5h[8:1]/1h[8:1],,,,
7,3,7,3,
{4}8h[8:1]/4h[8:1],
{16}8<4[4:1]/4,7<3[4:1]/3,6>2[4:1]/2,5>1[4:1]/1,,,,,8<4[4:1],7<3[4:1],6>2[4:1],5>1[4:1],,,,,8,7,6,5,4,3,2,1,
{12}84,6,2h[12:4],,,,
{8}3v1[8:1],,2>5[8:1],,6v4[8:1],,5<8[8:1],,1v7[8:1],,8>3[8:1],8<5[8:1],,,
4,82,5,17,
{16}4,6,2,8,3,4,1,7,2,1,3,8,4,7,5,6,
{32}4b,3,2,1,8,,,,6b>7[4:2],7,8,1,2,3,4,5,
{4}4h[4:1],,3h[4:1],2h[4:1],1h[4:1],8h[4:1],
{8}7h[8:1],,
{8}6h[16:1],6h[16:1],
(150)
{16}5h[16:1],,5h[16:1],,
(119)
{16}4h[16:1],,4h[16:1],,4h[16:1],,4h[16:1],,
(180)
{4}7h[4:1],8h[4:1],1h[4:1],
