&title=もどかしい世界の上で
&artist=牧野由依
&first=-0.061
&wholebpm=110.000
&lv_5=12
&des=欢迎加入LOA!
&inote_5=(110){8},,,,,,
{8}3h[4:1],,4h[4:1],,5h[4:1],,6,6^1[4:1],
{16},,1>4[4:1],,,,4^7[4:1],,,,2,,
{8},,3h[4:1],,4h[4:1],,5h[4:1],,6,6q3[4:1],
{16},,3,,2,,1,,,,4,5,4,,,,
{8}2h[4:1],,4h[4:1],,5h[4:1],,7,7^4[4:1],
{16},,4^1[4:1],,,,1^6[4:1],,,,4,,
{8}4qq8[8:3],,64,,,5h[4:1],,3,
{8}6/4h[4:1],,8,73,26,15,4pp7[8:3]/8pp3[8:3],,
{8}4b/8b,,,,,,4h[4:1],,
{8}6h[4:1],,5,5,7-5[8:1],,3h[4:1],,
{8}5h[4:1],,2,2,4-6[8:1],,1h[4:1],,
{8}7h[4:1],,8,8,6-8[8:1],,3h[4:1],,
{8}1-5[8:1],1,,,46,,5h[4:1],,
{8}3h[4:1],,4,3,2-4[8:1],,6h[4:1],,
{8}4h[4:1],,6,5,4-2[8:1],,8h[4:1],,
{8}2h[4:1],,1,2,3-1[8:1],,6h[4:1],,
{8}8-4[8:1],8b,,,,,3-8[8:1],,
{8}7-4[8:1],,3-8[8:1],,7pp4[8:3],,3h[4:2],,
{8},,,,35,,6-1[8:1],,
{8}2-5[8:1],,6-1[8:1],,2^4[8:1],2h[8:3],,,
{8}5^7[8:1],5h[8:3],,,8,,4-1[8:1],,
{8}8qq1[4:1],8,3,,4-1[8:1],,
{8}5pp4[4:1],5,2,2,,4^1[8:1]/5^8[8:1],36,4bqq5[8:3]/5bpp4[8:3],
{32},,,,,,,,
,,,,,,,,
,,,,
1,2,3,4,
5,6,7,8,
1,,,,
{16}7-5[8:1]/3,,,,37,,2,4,3-1[8:1],,2,,5-7[8:1],,6,,
{16}8-4[8:1],,1,1,8,,3h[8:1],,5,,1-5[8:1],,8-6[8:1],,1,,
{16}8,,4,5,3,,26,,7^4[8:1],8,,8,7,,1,,
{16}4-8[8:1],,2,2,4>6[16:5],,3,3,4,,,,,,,,
{16}2-4[8:1]/6,,7,,82,,7,5,6-8[8:1],,7,,4-2[8:1],,3,,
{16}1-5[8:1],,8,8,1,,6h[8:1],,4,,8-4[8:1],,1-3[8:1],,8,,
{16}1,,5,4,6,,73,,2^5[8:1],1,,1,2,,7,,
{16}6-4[8:1],,7,,8-4[8:1],,1,,2b^7[8:1],,,,5h[4:1],,,,
{16}6-4[8:1],,7,,8-6[8:1]*-2[8:1],,1,,,,,,35,,6,5,
{16}7-3[8:1],,7,,1-5[8:1]*w5[8:1],,2,2,,,,,3,4,3,4,
{16}2h[8:1]/5h[8:1],,,3h[8:1]/7h[8:1],,,1>8[8:3]/5,,,,,,8pp4[8:4]*qq4[4:2],,,,
{4},,,3/5-7[8:1],
{8}3-1[8:1],3,7-3[8:1],7,,1^4[8:1],8,7,
{8}6-1[8:1],5-2[8:1],6,5,,38,26,{16}4,5,
{8}3-1[8:1],3,7-5[8:1],7,,2-6[8:1],6,,
{8}8,73,26,15,4h[8:1]/8,{32}1,2,3,4,5-8[8:1],6,7,8,
1p4[8:3],,,,5b,,,,,
