&title=Far east nightbird
&artist=猫叉master
&first=0
&des=KuSA
&lv_4=11
&lv_5=13
&wholebpm=180
&inote_4=(180)
{1}
,,
{16}
3,,4,,2<8[8:1],,,,5,,5,,,,,,
7,,8,,6>4[8:1],,,,1,,1,,,,,,
2,,8,,1>3[8:1],,,,6,,6,,,,,,
5,,3,,6<8[8:1],,,,4,,4,,,,,,
2,,1,,3,,,,4,,3,,,,,,
7,,6,,,,,,5,,6,,,,,,
2,,3,,4v3[8:1],,,,,,7v6[8:1],,,,,,2v1[8:1],,,,,,
5v4[8:1],,,,,,2h[8:4],,,,,,8,,8z4[8:3],,,,,,,,,,,,
1,,,,2h[2:1],,,,3,,4,,5h[2:1],,,,1,,2,,3h[2:1],,,,4,,5,,
6>4[8:1],,,,2,,,,
1h[2:1],,,,8,,7,,6h[2:1],,,,3,,2,,1h[8:3],,,,,,8,,1v4[8:1]/7,,,,,,,,
6qq7[2:1],,,,2,,,,3h[2:1],,,,,,,,8h[2:1],,,,2,,3,,4v2[16:3],,,,5,,,,
8qq7[4:1],,,,4,,3,,2h[2:1],,,,,,,,8h[2:1],,,,3,,2,,1,,,87,,,67,,
4b/6b,,,3b/5b,,,
2h[2:1]/4b,,,,7,,6,,5h[2:1],,,,,,,,8,,1>3[8:1],,,,5,,,,
6h[2:1],,,,2,,3,,4h[2:1],,,6,,,6,,7h[8:3],,,,,,8,,7v5[8:1]/1,,,,,,,,
1b,,,2b/4b,,,
3h[2:1]/5b,,,,8,,7,,6h[2:1],,,,,,,,3,,4>2[8:1],,,,5,,,,
7h[2:1],,,,4,,3,,2h[8:3],,,1,,,1,,8q1[2:1]/2,,,,,,,,,,,,,,,,
2b,,,,4,,2,,5,,4,,6,,5,,
7,,,,5,,7,,4,,5,,3,,4,,
2,,,,4,,2,,5,,4,,6,,5,,
7>1[8:1],,,,5,,,,
3,,4,,3v6[8:1],,,,
7,,,,5,,7,,4,,5,,3,,4,,
2<8[8:1],,,,4,,,,
6,,4,,5v4[8:1],,,,
2,,,,4,,2,,5,,4,,6,,5,,
7,,7,,4,,4,,5b,,5,,2b,,2,,
8b,,,,5,,7,,4,,6,,3,,5,,
1,,,,4,,2,,5,,3,,6,,4,,
8,,,,5,,7,,4,,6,,3,,5,,
1<7[8:1],,,,6,,,,
5v8[8:1],,4,,3,,,,
1,,,,4,,2,,5,,3,,6,,4,,
8>2[8:1],,,,2,,3p7[16:3],,,,,,6,,5>6[4:3],,,,,,,,,,,,,,,,,,
3,,3,,5,,5,,2,,2,,6,,6,,
1b,,6,,2,,7,,3,,8,,
1,,6,,2,,7,,3,,8,,
1,,4,,2,,5,,
1b,,6,,2,,7,,3,,8,,
1,,6,,2,,7,,3,,8,,
1,,2,,3,,4,,
5b,,2,,6,,3,,7,,4,,
5,,2,,6,,3,,7,,4,,
8,,4,,6,,2,,
5b,,2,,6,,3,,7,,4,,
5,,2,,6,,3,,7,,4,,
8,,17,,26,,35,,,,
2,4,2,4,2,,
7,5,7,5,7,,
2,8,2,8,2,,
5,3,5,3,5,,
1bv8[8:1],,,,,,,,
7,,,7,,,
7,5,7,5,7,,
2,4,2,4,2,,
7,1,7,1,7,,
46,,5,,6h[4:1]/4,,,,
8,6,8,6,8,,
5,3,5,3,5,,
7,1,7,1,7,,
4,6,4,6,4,,
8bv1[8:1],,,,,,,,
2,,,2,,,
2,4,2,4,2,,
7,5,7,5,7,,
2,8,2,8,2,,
5v4[8:1]/3,,,,,,
{12}
1b,,2,,7,,8,,2,,3,,6,,7,,3,,4,,5,4,5,4,5,,
3,,2,,7,,6,,4,,3,,6,,5,,1,,2,,8,1,8,,
2,,3,,6,,7,,1,,2,,7,,8,,{1}3s7[4:3],
{16},,,,
6,4,5,3,
4b<7[8:1],,,,3,,,,
8v5[8:1],,1,,2,,,,
3,,3,,4,,4,,1,,8,,5,,6,,
5>2[8:1],,,,6,,,,
7h[8:2],,1,,8h[4:1],,,,6,,6,,5,,5,,
7,,2,,8,,3,,
1b<6[8:1],,,,3,,4b>1[8:1],,,,6,,7b<4[8:1],,,,,,
,,2,,1,,8,,6,,1,,5,,
2,,3,,5,4,6,,7,,8,,
2,,3,,5,4,6,,7,,8,,
12,,3,,45,,6,,
8b>3[8:1]/7,,,,6,,,,
4v1[8:1],,5,,6,,,,
8,,8,,7,,7,,4,,5,,3,,8,,
1b<6[8:1]/2,,,,3,,,,
24,,35,,6h[4:1]/4,,,,3,,3,,5,,5,,2,,6,,1,,7,,
8b,,6,5,7,,1b,,5,4,6,,2bp1[4:1],,,,,,,,
6,,5,,4,,3,,2,,1,,
78,,6,,4,5,3,,2,,1,,
78,,6,,4,5,3,,2,,1,,
87,,6,,54,,3,,
{1}2bqq7[4:7]/1,,{8}6b,,,5b,,,4b,,,{1},,
E
&inote_5=(180)
{1},,
{8},,4/5,,3h[8:3]/4,,,4,5h[4:1]/3,,4,,6h[8:3]/5,,,5,4h[4:1]/6,,
5,,3h[8:3]/6,,,5,4/6h[4:1],,5,5,4,4,{16}3,5,3,5,3V58[8:6],,,,
{8}2h[4:1],,,,,1,1-4[8:6],,7h[4:1],,,,,6,6,,
5h[4:1]/6h[4:1],,,7h[4:1]/5h[4:1],,,5h[4:1]/8h[4:1],,,5h[4:1]/1h[4:1],,,
5h[4:1]/2,,3,,
{16}5bp3[2:1]*q7[2:1]/4,,,,,,,,,,,,,,,,
4/5,,,,2/8,,3,,4v6[16:3]/5,,,6p2[16:3],,,8,,8,,,,,,7/3,,
2-5[8:1]/6-1[8:1],,,,2/6,,,,4/3,,,,1/7,,6,,5v3[16:3]/4,,,3q7[16:3],,,1,,1,,,,,,8/1,,2-6[8:1],,6-2[8:1],,2,,,,8v5[8:1],,8v3[8:1],,,,,,
,,,,2/6,,3/7,,8h[4:1]/4h[4:1],,,,,,2/6,,3-8[8:1]/7-4[8:1],,,,3/7,,,,5/6,,,,
1/8,,2/7,,3/6V47[4:1],,,4,,,2,,2h[4:1],,,,1,8,7,6,5/2,3,4,5,6,7,8,1,
{12}2/4,,4/5,,5/7qq3[2:1],,{16},,,,1,,1b,,,,,,,,2/6,,3v8[8:1]/7<4[8:1],,,,3/7,,,,
2/1,,3,,5,,6,,4v7[16:3],,,7p3[16:3],,,8,,8h[8:3],,,,,,4,,5,,6,,7,,1/8,,
2pp6[2:1],1,2,1,,,8b,,,,,,,,7,,7h[4:1]/8h[4:1],,,,,,6/1,,5<8[8:1]/2v5[8:1],,,,5/2,,,,
1/8,,,,7/8,,1/6,,2/5V37[4:1],,,3,,,1,,1h[8:1],,,,8h[8:1]/2h[8:1],,,,
1,2,3,4,5/1,8,7,6,5b-1[8:1],,,,4/5,,,,2-5[8:1],,,,2/8,,8,,4-8[8:1],,,,5/4,,,,
7-4[8:1],,,,1/7,,2,,3<6[8:1],,,,3>8[8:1],,,,7-3[8:1],,,,7/1,,,,
2v5[8:1]/6-1[8:1],,,,2/6,,,,
8/4,,7/3,,6qq3[2:1]/2,,,,1h[2:1]/6,,,,,,,,,,,,1/8,,1/8,2/7,3-8[8:1]/6-4[8:1],,,,
3/6,,,,1/5,,2/6,,7/3v8[8:1],,,,6h[4:1],,,,1,,2,,5/3h[4:1],,,,
5,,6,,3/7,,2,,1/8,,
{24}8,7,6,5,,,4/5,,,2,3,4,5,,,
{16}8bq4[8:1],,,,8/7,,,,5<8[8:1],,4,,3/5,,2,,1p5[8:1],,,,1/2,,,,4>1[8:1],,5,,6/4,,7,,
8-6[8:1]*-3[8:1],,,,8-4[8:1]*v5[8:1],,,,8,,,,2/6,,,,3-7[8:1]/7<4[8:1],,,,3/7,,,,8,,1,,
2<4[2:1]/6<4[2:1],,,,2/6,,,,,,,,,,,,5/6,,7-4[8:1],,,,7/4,,3,,2-6[8:1],,,,2/6,,7,,
8,,1>4[8:1]*-6[8:1],,,,1,,,,8-5[8:1]*>3[8:1],,,,8,,,,4/6,,3/5,,4,6,4,6,3,7,3,7,2,6,2,6,
1b-5[8:1],,5-1[8:1],,1,,7,,,,7/3,,2-5[8:1],,5>2[8:1],,2V84[4:1],,8,,7,,6,,
5-2[8:1],,6,,7/5,,,,8-4[8:1],,4-8[8:1],,8,,2,,,,2/6,,7-4[8:1],,4<7[8:1],,7V15[4:1],,1,,2,,3,,4-8[8:1],,3,,2/4,,,,2b-6[8:1],,6-2[8:1],,2,,8,,,,7/4,,
8-3[8:1],,3>8[8:1],,8<5[8:1],,5-1[8:1],,4,,3,,2-5[8:1],,2,,1,,8,,
7-3[8:1],,3-7[8:1],,7,,1,,,,2/6,,4>1[8:1],,8<5[8:1],,4,,8,,1,,
1,2,3,4,{24}8,7,6,5,4,3,2,1,8,{16}7b,,
3,4,3,4,2h[8:1],,6,5,6,5,7h[8:1],,1,8,1,8,2h[8:1],,5,4,5,4,6h[8:1],,3-6[8:1]*-5[8:1],,,,
,,,,1/8,,,1/2,,,7,8,7,8,6h[8:1],,2,1,2,1,3h[8:1],,5,4,5,4,6-4[8:1],,3-6[8:1],,,,,,,,
6,5,7,4,6h[8:1],,3,4,2,5,3h[8:1],,7,8,6,1,7h[8:1],,2,1,3,8,2h[8:1],,7-2[8:1]*-1[8:1],,,,
,,,,4/3,,,4/5,,,6,5,6,7,6,,3,4,3,2,3,,8,1,7,2,8,,8/1,,2-5[8:1]/7-3[8:1],,3/6,,2b/7b,,,,,,,,,,,,,,,,,,,,,,,,,,,,3,6,4,5,3/6,,,
{24}1h[6:1]/4,,,,5,,,,2h[6:1]/4,,,,5,,,,3h[6:1]/4,,,,6,,,,4h[6:1]/5,,,,7,,,,5h[6:1]/6,,,,8>3[8:1],,,,6,,7,,8,,,,8h[6:1]/5,,,,4,,,,7h[6:1]/5,,,,4,,,,6h[6:1]/5,,,,3,,,,5h[6:1]/4,,,,2-4[8:1],,,,6,,,,5,,5,,,4,,4bw8[4:1],,{16},,,,,,,,,,,
2/6,3/7,4/8,5/1,6bp2[8:1]/2bp6[8:1],,,,2/6,,,,1-6[8:1],,6v3[8:1],,1,,,,
5,,4,,3<6[8:1],,2,,1,,8>3[8:1],,7,,6,,5-8[8:1]*-2[8:1],,,,5,,,,
8-3[8:1]/1,2,3v6[8:1],,8,,,,4,,4,,5/4,,6,,7,,8,,1/8-4[8:1],,,,
8b/2V86[8:1],,,,2/6,,5b-1[8:1],,,,4/5,,3bqq8[8:3],,,,,,,,
8,,7,,6/1,,5,,4/2,,3,,3/4,,2h[4:1],,
{24}1-5[8:1],8,7,{16}6-1[8:1],,1,,6,,4,,3h[4:1],,
{24}2-5[8:1],1,8,{16}7-4[8:1],,2,,7,,1,,2,,7/3,6/2,5/1,4/8,3b-6[8:1]/7b-2[8:1],,,,3/7,,,,8v3[8:1],,
3p6[8:1],,8,,,,4,,5,,6>3[8:1],,7,,8,,1<6[8:1],,2,,3,,4-1[8:1]*v7[8:1],,,,4,,,,
1v6[8:1]/8,7,6q3[8:1],,1,,,,5,,5,,4v2[8:1]/5v7[8:1],,,,4/5,,,,1/8,,2/7,,
{24}6b/3b,5,4,3,2,1,8,7,6,5b/2b,3,4,5,6,7qq4[8:3],8,1,2,{16}3b/7b,,,,,,,,
1,,2,,3/6,,5,,7/4,,5,,6/5,,7h[4:1],,
{24}8-4[8:1],1,2,{16}3-8[8:1],,8,,3,,7,,6,,
{24}5/1-6[8:1],6/2,3/7,{16}4-8[8:1]/8,,
1,,4,,6,,5/2,,{24}2,3,4,5/8,7,6,{16}5bq8[1:1]*p2[1:1]/1b,,,,,,,,,,,,,,,,,,,,,,,,,,
2/7,,{24}1,8,1,8,,,2b/8h[4:1],3,4,5,6,,,,,7b/1h[4:1],6,5,4,3,,,,,1b,2/8,3/7,4/6,
5qq3[8:1]*pp7[8:1],
