&title=愚か者の賢人論
&artist=Feryquitous
&first=0
&des=Dororo
&lv_5=13+
&inote_5=(160)
{1},
{16}4h[128:1],,,,,,2h[128:1],,,,,,8,,1,,
{16}7h[128:1],,,,,,5h[128:1],,,,,,,,,,
{16}3h[128:1],,,,,,1h[128:1],,,,,,,,,,
{16}6h[128:1],,,,,,4h[128:1],,,,,,,,,,
{16}5h[128:1],,,,,,7h[128:1],,,,,,,,,,
{16}2h[128:1],,,,,,4h[128:1],,,,,,,,,,
{16}6h[128:1],,,,,,8h[128:1],,,,,,,,,,
{16}3h[128:1]/Ch[1:1],,,,,,5h[128:1],,,,,,,,,,
{16}4^1[4:1],,,,,,7^4[4:1],,,,8,,8,,,,
{16}1q5[4:1],,,,,,7h[8:3],,,,,,,,,,
{16}5-2[4:1],,,,,,8-5[4:1],,,,1,,1,,,,
{16}8-4-1-3[2:1],,,,,,6h[8:3],,,,,,,,,,
{16}5^8[4:1],,,,,,2^5[4:1],,,,1,,1,,,,
{16}8z4[2:1],,,,,,2h[8:3],,,,,,,,,,
{16}4-7[4:1],,,,,,1-4[4:1],,,,8,,8,,,,
{16}1w5[2:1],,,,,,,,,,,,,,,,
{16}6h[4:1],,,,4,,2pp5[8:3],,,,5,,6,,7,,
{16}8qq4[8:3],,,,4,,3h[4:1],,,,,,4/2^7[8:1],,,,
{16}6h[4:1],,,,8,,2qq7[8:3],,,,7,,6,,5,,
{16}4pp5[4:1],,,,1,,1,,,,3,3,4,2x,,,
{16}3h[4:1],,,,5,,7qq4[8:3],,,,4,,3,,2,,
{16}1pp5[8:3],,,,5,,6h[4:1],,,,,,5/7^2[8:1],,,,
{16}3h[4:1],,,,1,,7pp2[8:3],,,,2,,3,,4,,
{16}5qq3[4:1]*pp7[4:1],,,,,,,,,,6,6,5,7x,,,
{16}2-5[8:1],,1,,,,1,,6-3[8:1],,1,,,,1,,
{16}4^1[8:1],,1>7[4:1],,,,,,,,8,,8h[4:1],,,,
{16}1-6[8:1],,5,,,,5,,7-2[8:1],,5,,,,5,,
{16}3qq4[4:1],,5-7[8:1],,,,,,,,8,8,2,6x,,,
{16}7-4[8:1],,8,,,,8,,3-6[8:1],,8,,,,8,,
{16}5^2[8:1],,8<2[4:1],,,,,,,,1,,1h[4:1],,,,
{16}8-3[8:1],,4,,,,4,,2-7[8:1],,4,,,,4,,
{16}8-4[8:1],,4-1[8:1]*-7[8:1],,,,,,,,1,1,7,3x,,,
{16}8xbh[4:3]/2xbh[4:3],,,,,,,,,,,,,,,,
{16}2h[4:3]/4h[4:3],,,,,,,,,,,,,,,,
{16}4h[4:3]/6h[4:3],,,,,,,,,,,,,,,,
{16}6h[4:3]/8^6z2^4b[2:1],,,,,,,,,,,,,,,,
{16}57,,4,,25,,3,4,3,,1,,28,,,,
{16}3-8[8:1],,6-3[8:1],,3,,6,,,,2,4,3,5,4,6,
{16}5^8[16:3],,7^2[16:3],,1^4[16:3],,1h[8:3],,,,,,,,,,
{16}4^7[16:3],,6^1[16:3],,8^3[16:3],,8h[8:3],,,,,,,,,,
{16}35,,1,,38,,2,1,2,,6,,57,,4,,
{16}2-5[8:1]/5,,6,6,2,,8h[4:1],,,,7,8,1,2,3,4,
{16}1-7v5[4:1]/5,,1,,3,,3h[4:1],,,,4,,25,,8,,
{16}1/7-3[8:1],,2,2,7,,1h[4:1],,,,4,2,5,3,5,,
{16}64,,8,,61,,7,8,7,,3,,42,,5,,
{16}7-4[8:1]/4,,2,2,7,,1h[4:1],,,,2,1,8,7,6,5,
{16}8-2v5[4:1]/4,,8,,6,,6h[4:1],,,,5,,74,,1,,
{16}8/2-6[8:1],,1,1,2,,8h[4:1],,,,4,7,3,6,2,5,
{16}E5/1h[4:1],,,,,,1,,,,,,,,,,
{16}B3/7h[4:1],,,,,,7/B5,,,,,,,,,,
{16}E1/3h[4:1],,,,,,3,,,,,,,,,,
{16}B7/5h[4:1],,,,,,5/B1,,,,6,,2,,6,,
{16}E5/8h[4:1],,,,,,8,,,,,,,,,,
{16}B6/2h[4:1],,,,,,2/B4,,,,,,,,,,
{16}E1/6h[4:1],,,,,,6,,,,,,,,,,
{16}B2/4h[4:1],,,,,,4/B8,,,,,,26,,,,
{16}1bh[4:1]/7b-4[8:1],,,,,,,,5h[8:1],,3,,,,3,,
{16},,1h[8:1],,3,,,,7h[8:1],,5,,,,3,,
{16}4-8[8:1]/2h[4:1],,,,,,,,1h[8:1],,3,,,,3,,
{16},,5h[8:1],,3,,,,7h[8:1],,1,,,,3,,
{16}8h[4:1]/2-5[8:1],,,,,,,,4h[8:1],,6,,,,6,,
{16},,8h[8:1],,6,,,,2h[8:1],,4,,,,6,,
{16}5-1[8:1]/7h[4:1],,,,,,,,8h[8:1],,6,,,,6,,
{16}1b^6-4[2:1]/5bpp2[2:1],,,,,,,,,,,,,,,,
{16}1-6[8:1],,2,,16,,5h[4:1],,,,7,6,8,7,1,8,
{16}2-5[8:1],,1,1,2,,8V26[4:1],,,,5,,4,,3,,
{16}2-6[8:1],,1,,26,,7,7,5^2[8:1],,8^5[8:1],,5,,8,,
{16}1-5[8:1],,4,4,1,,6h[4:1],,,,3,5,2,6,1,7,
{16}8-3[8:1],,1,,82,,4h[4:1],,,,2,3,1,2,8,1,
{16}7-4[8:1],,8,8,7,,1h[4:1],,,,3,2,4,3,5,4,
{16}6,5,7,5,8,,3,4,2,4,1,,7,5,8,4,
{16}3b>5[4:1]/1h[2:1],,,,,,,,{32}D5,D4,D3,D2,D1,D8,D7,D6,{16}Cf,,,,
{16}4-1[8:1]/6,,6,,4,,,,4-7[8:1]/2,,2,,4,,,,
{16}4-1[8:1]/6,,,5,4,,5,,4-7[8:1]/2,,2,,4,,,,
{16}3-5[8:1]/6,,6,,3,,,,8-4[8:1]/4,,4,,8,,,,
{16}3-5[8:1]/6,,,7,3,,7,,8h[4:1]/4,,{32}E6,E7,E8,E1,E2,E3,{16}E4,,,
{16}5-8[8:1]/3,,3,,5,,,,5-2[8:1]/7,,7,,5,,,,
{16}5-8[8:1]/3,,,4,5,,4,,5-2[8:1]/7,,7,,5,,,,
{16}6^4[8:1]/3,,3,,6,,,,2^5[8:1]/5,,5,,2,,,,
{16}8<4[16:3]/3,,,2,8,,2,,1h[4:1],,{32}E4,E3,E2,E1,E8,E7,{16}E6,,,
{16}3,4,3,4,2,,2,,6,5,6,5,7,,7,,
{16}2,4,2,4,1,,1,,7,5,7,5,8,,8,,
{16}3,4,3,4,1,,1,,6,5,6,5,8,,8,,
{16}2,4,2,4,3,,3,,7,5,7,5,6,,6,,
{16}2,4,2,4,1,5,8,6,3,5,3,5,2,6,1,7,
{16}4,6,4,6,3,7,2,8,5,7,5,7,4,8,3,1,
{16}2,4,2,4,3,5,3,5,4,6,4,6,5,7,5,7,
{16}6,8,5,8,4,8,3,8,2-6b[8:1],8,1,8,2b,,,,
{16}8h[16:1]/E6,,,,,,,,8h[16:1]/E6,,,,,,,,
{16}8h[16:1]/E3,,,,,,,,8h[16:1]/E3,,,,,,,,
{16}8h[16:1]/E8,,,,,,,,8h[16:1]/E8,,,,,,,,
{16}8h[16:1]/E5,,,,,,,,8h[16:1]/E5,,,,{32}2h[128:1],6h[128:1],{16},,,
{16}1h[16:1]/E4,,,,,,,,1h[16:1]/E4,,,,,,,,
{16}1h[16:1]/E7,,,,,,,,1h[16:1]/E7,,,,,,,,
{16}1h[16:1]/B2,,,,,,,,1h[16:1]/B8,,,,,,,,
{16}1h[16:1],,,,,,,,1h[16:1],,,,{32}7-4b[8:1],3-8[8:1],{16},,,
