&title=Queen of the Red
&artist=ETIA.
&first=0.02
&des=Satella
&lv_5=13+
&inote_5=(188)
{1},
{8}7p4[2:1],3,2,1h[8:3],{2},{8}2q5[2:1],,,8h[4:1],,,7,,{8}6qq1[2:1],,,3h[2:1],{2},3pp8[2:1],{8}8,7,6,5,1>6[2:1],,,7h[8:3],{2},{8}8<3[2:1],,,2,,,1,,1hx[8:5]/7hx[4:1],,,8h[1:1],,,{4}Chf[4:5],,,{8}1,8,7,6,
5b-1[2:1],,4,4,,3,3,,2-6[2:1],,1,1,,8,8,,7h[1:1],,,5,,4,,3<6[4:1],{2},{8}7,8,1,2,1x-5[2:1],,8,8,,7,7,,6x-2[2:1],,5,5,,4,4,,{2}3hx[2:1],{8}1x,,,4qq8[8:5]/8qq4[8:5],{1}4/8,
{4}7/1,{8}2-5[8:1],6,2,8-4[8:1],4,8,3,,7-4[8:1],3,7,1-5[8:1],5,1,6,,4-2[8:1],7,4,8-4[8:1],1,8,2,,5-7[8:1],2,5,1x,8x/2x,3x/7x,4x/6x,,5-1[8:1],3,5,2-5[8:1],8,2,7,,4-8[8:1],6,4,7-4[8:1],1,7,2,,3-5[8:1],6,3,7-3[8:1],8,7,1,2-5[8:1],5x-3[8:1],2,6x,7x-4[8:1],4x-6[8:1],7x,
3b,,2-6[8:1],1,2,8-4[8:1],4-6[8:1],8,3,2,1-5[8:1],8,1,7-3[8:1],3-5[8:1],7,2,1,8-4[8:1],7,8,6-2[8:1],2-8[8:1],6,3,4,5-1[8:1],7,5,8x,1x/7x,2x/6x,3x/5x,,7-4[8:1],8,7,1-5[8:1],5-2[8:1],1,6,7,8-5[8:1],1,8,2-6[8:1],6-3[8:1],2,7,8,1-6[8:1],2,1,3-7[8:1],7-2[8:1],3,6h[8:3],,,{32}2,3,4h[16:5],,{8},8,7,6,
{8}5/1b-4-6[4:1],,1/6-2[8:1],7,8-4[8:1],,8,,2-5-7[4:1]/6,,7-3[8:1],8,1-5[8:1],,1>4[8:1],,1<6[8:1]/7,,1/5,4,3-7[8:1],,3/4,,5-1[8:1],1,5,2h[4:1],8,7,1,2,3xV15[4:1]/6x,,5-3[8:1],6,7-3[8:1],,7,,1/2V48[4:1],,8-2[8:1],7,6-4[8:1],,6-1[8:1],,3bx-8[8:1]/6,,,7bx-4[8:1],,,2bx<4[8:3],,6h[2:1],,,,E4,E3,E2,E1,5V74[4:1],,4v1[8:1]/5,3,2-7[8:1],,2,,1/6V85[4:1],,5-1[8:1],4,3>8[8:1],,3,,7-3[8:1],,7,4b-8[8:1],,4b/5b-1[8:1],,2bw6[8:1]/5b,
,{16},Cf,{8},,4x/8x,3/7,2/6,1/5,{2}4pp8[8:3]/8,{8}1,2,3,4,{2}5qq1[8:3],{8}8,7,6,5,4b-8[8:1],,,1,1b-5[8:1],,,7,7b-3[8:1],,,1x,E6,E2,E8,E4,
Cf,,4,4-7b[8:1],,8,8-3b[8:1],,2,2-5b[8:1],,2/6-1[8:1],,3/6,,4,4>1b[8:1],,8,8<5b[8:1],,3,3-6b[8:1],,7-2[8:1]/3,,2/7,,1,1v4b[8:1],1,5,5v8b[8:1],5,3,3>8b[8:1],,3/7<4[8:1],,4/7,,2,2v4b[8:1],2,6,6v8b[8:1],6,1,1v3b[8:1],,1/5v7[8:1],,
4,3,2b,1,8h[4:1],1,2h[4:1],7,6h[4:1],3,4h[4:1],5,5<8[8:1],,5/3,2,1,2/8,8,7,1h[4:1],8,7h[4:1],2,3h[4:1],6,5h[4:1],4,4>1[8:1],,4/6,7,8b,1,2,3>8[8:1]/4,5,6,7-3b[8:1],6,8/7,1,2,3,4-8[8:1],5,4/6,7,6b<1[8:1],5,4,3,2b-5[8:1],1,8,7,{24}6x,5,4,3,,,2x,3,4,5,,,8x,7,6,5,,,1x,2,3,4,,,{1}5bw1[4:3],{2},
{8}E6,B5,,E4/B3,,,B7/E8,,{16}A1,D2,A2,D3,A3,,,,A5,D6,A6,D7,{8}A7,,A3/B3,,,A7/B7,,,E4,E5,E6/B6,,,E2/B2,,,C,,E6,B5,B4,E4,,,B1`E2,,{16}E7,,,E8,,,E3,,{4}E4/C,E5/E6,{8}B7,B8,B1,B2,,B4/B5,,Chf[8:9],{4},,,1-5b[8:1],
,,,{16}3<7[4:3],,,,{1}2hx[2:1],{8}1>6[8:3],,,8-4[8:1],,8w4[8:1],,8b,,,E7/E3/B2/B3/B6/B7/Cf,,{2},{8}5/6h[4:1],,{16}4,4,5h[4:1],,,,3,3,4h[4:1],,,,2h[4:1],,,,1,1,3h[4:1],,,,8,8,{8}4h[4:1],,7,6,5,4,3,2,{16}1,2x,3x,4x,{1}5x-1b[2:1],2h[1:2]/6h[1:3],,,
{8}8-4[8:1],,8,5-1[8:1],,5,8b,,7-5[8:1],5-8-3b[4:1],4,3-6[8:1],2,1,2,7x,1-5[8:1],5-2-6b[4:1],1,6-3[8:1],7,8,7,2x,8-4[8:1],4V61b[4:1],8,1-5[8:1],2,3,4,6x,3,{16}2,1,2,,7,8,7,,{8}1/8,2/7,3/6,
{8}4/5V73[4:1],4,3,2,1V37[4:1],8,7,6,5<8[8:1],4,3/5,2,1>4[8:1],8,7/1,6,5b/7b,,2b/4b,,{16}3b/1b,,,1b/8b,,,6b/8b,,{8}4b/5b,,2b/7b,1b-5-7b[4:1]/8b-4-2b[4:1],,,A5/A4/D5f,,1hx[4:1]/8hx[4:1],,,{16}2,1,2,1,3,8,3,8,4,7,5hx[4:1]/6hx[4:1],,,,,,7,8,7,8,6,1,6,1,5,2,{8}3x/4x,3/4,5/6,5/6,{16}4,5,3,6,2,7,{32}1x,2x,3x,4x,5hx[8:1],,,,7x,6,5,4,,,2x,3,4,5,,,8x,7,6,5,,,1x,2,3,4,,,1x,8,7,6,{4}5>5[4:13]*<5[4:13],5b,,,,,,,,,,,,,,{8},1b,
