&title=ザムザ
&artist=25時、ナイトコードで。 × KAITO
&first=0
&des_5=Tane
&lv_5=13
&des=Tane
&inote_5=(120.88){1},
{8}E2,,,,
B4,,,,
B6,,,,
E1,,,,
E8,,,,
B5,,,,
3xv4^6[8:5],,,,
,,,,
{8}28,,3,,
17,,4,,
13,,4,,
26,,3,,
17,,3,,
28,,4,,
16,,4,,
38,,3,,
{8}1/B6,,3,,
2/E8,,4,,
2/C,,3,,
4/C,,3,,
2/A6,,3,,
1/E7,,4h[4:3],,
B7/E8,,,,
E2/B2,,,,
{16}7,,7,5,
,5,,,
3,,3,4,
,4,,,
6,5,7,4,
,2^5[8:1]/6^1[8:1],,,
,,,,
,,,,
2,,2,4,
,4,,,
6,,6,5,
,5,,,
3,4,2,5,
,1,,7,
7h[8:1],,5,5b,
,,,,
{16}3/B7,,3,4,
2,,1,,
28,,37,,
46,,,,
5-2[8:1],,,,
7,,,,
1-6[8:1],,,,
3,,,,
7/B3,,7,8,
6,,5,,
64,,73,,
82,,,,
1-6^5[8:1],,,,
3,,,,
5-2^1[8:1],,,,
7,,,,
{16}7,7,8,,
16,,5,,
3,3,4,,
24,,1,,
1v2^4[4:1],,8,,
7,,6,,
5-8[8:1],,4,,
3,,,,
2,2,1,,
83,,4,,
6,6,5,,
75,,8,,
12,,2,,
78,,7,,
18,,2,1,
,7,8,,
{16}E2h[16:1]/6h[8:3],,,E3h[16:1],
,,E4h[8:4]/B3/B4,,
6h[16:1],,,7h[16:1],
,,8h[8:4],,
E6h[16:1],,,E7h[16:1],
,,E8h[8:3]/B7/B8,,
,1h[16:1],,,
1h[16:1],,,,
1h[8:3]/Ch[16:1],,,E7h[16:1],
,,E6h[8:4]/B5/B6,,
1h[16:1],,,2h[16:1],
,,3h[16:1],,
4h[8:1]/E7h[16:1],,,,
5h[8:1],E3h[16:1],,,
E1h[16:1]/E5h[4:1]/B4/B5,,,,
,,,,
{16}E1h[16:1],,,Ch[16:1],
,,E5h[16:1],,
,E2h[16:1],,,
E8h[16:1],,,,
1b/8b,,1,2b/8b,
,8,1,8,
1b/7b,,26,,
3/5-7[16:1],,,5/A1f,
{16},,28,,
4-2[16:1]/6,,,4/A8f,
,,17,,
35,,2,,
5,26,,3,
47,,7,5v4^2[4:1]/8,
,,7,,
6,,,,
7h[8:1]/1,,1,,
34,,,7h[16:5]/3,
,,1,,
1,,2,,
34,,17,,
8-4[8:1],8,,C,
,,1,,
2,,3,,
{16}4-2[8:1]/8,,1,,
48,,6,,
4-2[8:1]/8,,1,,
48,,6,,
7,7,,4,
4,,1,1h[8:1],
,5,,E6h[16:1],
,,E7h[16:1],,
1,,1,,
34,,2,,
7h[8:1]/1,,1,,
56,,7h[4:1],,
2,,2,,
2-7[8:3],,,,
,,,,
,,,1b,
{16},,,,
,,,,
3b,,,,
,,,,
5b,,,,
,,,,
7b,,,,
,,,,
E3,,,,
,,,,
A1,,,,
,,,,
C,,,,
,,,,
,,,,
45,45,,,
{16}3hb[4:1]/6hb[4:1],,,,
,,,,
4hb[4:1]/5hb[4:1],,,,
,,,,
1,,1,8,
1w5[8:1]*w5[8:1],,,,
1b,,,,
2,1,2,,
3h[16:1]/8h[16:1],,38,,
5,4,5,,
6h[16:1]/1h[16:1],,16,,
7,8,7,,
1/2V41-5[4:1],,45,,
12,,8,,
7,,68,68,
,,,,
{16}4,,,,
4,,,,
1,,,,
1,,,,
2V41-5[2:1],,,,
,,,,
,,,,
,,8,,
1b/7b,,2,4,
,4,3,,
38,,7,4,
,4,6,,
6,5,7,4,
,2,1,,
2V41-5[4:1],,2,,
8,,8,,
7,,6,5,
,5,6,,
7,,3,4,
,4,2,,
2,4,3,5,
,5,3v4-6[4:1],,
6,,7,7,
,,,,
{16}
82,,7,5,
,5,6,,
61,,2,5,
,5,3,,
3,7,2,8,
,8,1,,
7V58-4[4:1],,7,,
1,,1,,
2,,3,4,
,4,3,,
2,,6,5,
,5,7,,
7,5,6,4,
,4,6,,
1,,2,5-1[8:1],
,6,,7bh[16:1],
{16},,,,
,,,,
,,,,
,,,,
E
