&title=Scars of FAUNA
&artist=猫叉Master
&first=1.46
&des=
&des_5=Arnold
&wholebpm=165
&demo_seek=81
&demo_len=20
&lv_5=14
&inote_5=(165)
{16}E2,,,E7,,,E5,,C,,,,E4/E5,,,E7/E8,
{16},,{24}E1,B1,B2,{16}E3,,,,E8,,,E3,,,E5,,C,,,,E6/E5,,,E3/E2,
{16},,{24}E1,B8,B7,{16}E7,,,,
{16}2/5h[48:1],,,B3,,,5,4,6h[8:1],,4,,7/4,,,B6,
{16},,{24}E5,B4,B3,{16}E3,,6,5,7,,,C,,,E2/B1,,
{16}E6/B5,,4,5,3,,,C,,,{24}E5,B5,B6,{16}E7,,,,
{16}2/5h[48:1],,,B3,,,E8/B8,,E6/B5,,,,7/4,,,B6,
{16},,{24}E5,B4,B3,{16}E3,,,,4/7,,,C,,,E2/B1,,
{16}E4/B4,,,,5/3,,,C,,,{24}E5,B5,B6,{16}E7,,,,
{16}2/5h[48:1],,,B3,,,E8/B8,,E6/B5,,,,7/4,,,B6,
{16},,{24}E5,B4,B3,{16}E3,,,,5/2,,,C,,,3,4,
{16}2,,5,4,6h[8:1],,,C,,,{24}E8,B8,B1,E2,,,5x,3x,6x,
{1}4x>5[8:12],
{8},,5,5,5pp2[8:8],,,,
{8},,1h[8:4],,,,,,
{8}8qq2[8:6]/3h[96:1],,,,2,2,2<5[8:6],,
{8},B3,,,Ch[8:4],,,,
{8},,45,,27,,{16}1,8,2,7,
{8}1xpp5[8:10],,E8,E7,,B8,B6,,
{8}7,6,5>2[8:5],6,6h[96:1],,8,7,
{8},7,8h[8:3],,E3,E4,{16}8,7,6,5,
{16}4/2-5[16:1],,,26,,,7,,8,,8,,4/7-3[16:1],,,27,
{16},,2,,1,,,,4/2-5[16:1],,,26,,,7,,
{16}8,,8,,2,1,3,8,4,7,5,6,4,6,3,7,
{16}8/2b,,,2h[8:1],E8,,2,,3/E7,,,,4h[8:1]/6,,,4,
{16}E6,,{24}A4,E4,E3,{16}A2/7,,,,2h[96:1]/7,,,7h[8:1],E2,,7,,
{16}6/E3,,,,5h[8:1]/3,,,5,E4,,{24}A5,E6,E7,{16}A7/2,,,,
{16}8h[96:1]/2,,,2h[8:1],E8,,2,,3/E7,,,,4h[8:1]/6,,,4,
{16}E8,,{24}A5,E5,E4,{16}A3/7,,,,2/7,,,7h[8:1],E2,,7,,
{16}6/E3,,,,5h[8:1]/3,,,5,E4,,{24}A4,E5,E6,{16}A6,,{24}A1,E2,E3,
{4}A3,,,2v5[8:1]/6-8[8:1],
{16}2-4[8:1]/6,,,,26,,6,5,6,,7,,{24}2,3,4,{16}5,,
{16}8-3[8:1],,7,,8<6[8:1]/1p5[8:1],,,,1/8-4[8:1],,,,6,,6,5,
{16}7,,7,,{24}7,6,5,{16}4,,1,8,2,8,{4}7v4[8:1]/3-1[8:1],
{16}7-5[8:1]/3,,,,73,,3,4,3,,2,,{24}7,6,5,{16}4,,
{16}1-6[8:1],,2,,1>3[8:1]/8q4[8:1],,,,8/1-5[8:1],,,,3,,3,4,
{16}2,,2h[4:1],,{24}8,7,6,{16}5,,,,2,,3/2h[8:6],,4,,
{16}5,,6,,7,,8,,{24}E8,B7,B6,E6,,,E2,B2,B3,E4,,,
{16}6,5,7,,7<4[8:1],,8,,1,,2,,3,,3,4,
{16}2h[4:1],,{24}8,7,6,{16}5,,5h[8:2],,,,2,,2h[8:6]3,,4,,
{16}5,,6,,7,,8,,{24}E8,B7,B6,E6,,,E2,B2,B3,E4,,,
{16}6,5,7,,7p5[8:3],,8,,1,,2,,3,,3,4,
{16}3h[4:1],,{24}8,7,6,{16}5,,Ch[8:3],,,,,,8b-4[8:1],,,,
{16}1-6[8:1]/8<6[8:1],,,,1-5[8:1],,,,2h[8:4],,,,4,,4,,
{16}5,,6,,7h[96:1],,,,8>4[4:1],,7,,68,,,,
{8}6h[8:4],,B4,C,B1,,3h[96:1]/7h[96:1],,
{8}4>2[8:1]/5-2[8:1],,4-8[8:1],,6pp5[8:3],,2,2,
{8}3<8[8:4],3,2h[4:2],,,,,{16}2,1,
{8}2,{24}2,3,4,{8}5,Ch[8:3],,,{16}1b-5[8:1],,,,
{16}8-3[8:1]/1>3[8:1],,7,,8-4[8:1],,,,7h[8:4],,,,5,,4,,
{16}3,,2,,2h[96:1],,,,1<4[4:1],,2,,31,,,,
{8}3h[8:4],,B5/E6,C,B8/E8,,6h[96:1]/2h[96:1],,
{8}5-7[8:1]/4-7[8:1],3,5-1[8:1],,3qq4[8:3],,7,7,
{8}7,6,5h[8:4],,,,,{24}1,2,3,
{4}4bw8[8:1],4b,2b/6h[96:1],{8}2>5[8:1],5-2[8:1],
{8}2V48[8:2],7,6,6,6V84[8:2],1,2,3,
{8}2,1,14,{24}1/4,2/5,3/6,{8}4/7,4/7,1>6[8:2]/2,B8,
{8}7h[8:2],,,7,78,16,1-4[8:1],4-1[8:1],
{8}1-6[8:1],6-1[8:1],7<4[8:1],8,7-3-7[8:2],,2/7,1-5-1[8:2],
{8},1/6,6h[8:2],,,,1-5[8:1],2,
{32}2,3,4h[16:7],,,,,,,,,,,,,,C,,,,,,,,{8}7<4[8:1],4-7[8:1],
{8}7V51[8:2],2,3,3,3V15[8:2],8,7,6,
{8}7,8,85,{24}8/5,7/4,6/3,{8}5/2,5/2,8<3[8:2]/7,B1,
{8}2h[8:2],,,2,21,83,8-5[8:1],5-8[8:1],
{8}8-3[8:1],3-8[8:1],2>5[8:1],1,2-6-2[8:2],,7/2,8-4-8[8:2]/A6,
{8},8/3,3h[8:2]/A4,,,,4/5,,
{8}1/8,,2/7,,{16}4,5,3,6,{8}2pp6[8:10]/7h[96:1],,
{8}E1,E8,,A8,A7,,E1,E8,6>1[8:8],7,7,,E8,E7,,B8,
{8}Ch[8:4],,,,,,{16}4h[96:1]/2-5[16:1],,,26,
{16},,7,,8,,8,,4h[96:1]/7-3[16:1],,,27,,,2,,
{16}1h[96:1],,,,4h[96:1]/2-5[16:1],,,26,,,7,,8,,8,,
{16}4,6,2,7,3,5,1,8,3,7,2,5,6h[96:1]/1b>3[12:1],,,7,
{16}1-4[8:1],,8,,8/1-5[8:1],,,,7/1>3[12:1],,,7,1-4[8:1],,{24}A5,E6,E7,
{16}A7/1-5[8:1],,,,7h[96:1]/1>3[12:1],,,7,1-4[8:1],,8,,8/1-5[8:1],,,,
{16}7/1>3[12:1],,,7,1,,{24}A5,E6,E7,{16}A7/3x,,3,2,8<6[12:1]/1h[8:1],,,2,
{16}8-5[8:1],,1,,1/8-4[8:1],,3,2,1h[8:1]/8<6[12:1],,,2,8-5[8:1],,{24}A4,E4,E3,
{16}A2/8-4[8:1],,1,2,3h[8:1]/8<6[12:1],,,2,8-5[8:1],,3,,3/8-4[8:1],,4,3,
{16}2h[8:1]/8<6[12:1],,,2,8-5[8:1],,{24}A4,E4,E3,{16}A2/8,,,,38,,,45,
{16},,16,,48,,{24}7,6,5,{16}4b/2-6[16:1],,,2b/7V51[8:1],,,8b,,
{16}3b/Cf,
