&title=ロミオとシンデレラ
&artist=doriko/桃井愛莉×日野森雫×初音ミク
&first=1.497
&des=Kurage
&lv_5=13+
&inote_1=
&inote_5=(85)
{16}
4qq5[32:9],4,,5,5x,,,,
6pp5[32:9],6,,4,4x,,,,
2h[8:1],,4,4pp5[32:7]/3>6[32:7],,56,,,
,,,,4x,,3x/5x,,
2V48[16:3]/6,2,,7-5[32:3],8x,,,,
1xh[8:1],,3h[8:1],,5xh[8:1],,7h[8:1],,
1x<5b[64:15],1x/8x>4[64:11],,,{4},
D5,{16}4-7[170#8:1]/3-8[170#8:1],,{64}E4,Cf,E8,,,,,,
(170)
{8}
1xb/5xb,,42,3,7-4[8:1],4-6[8:1],7,2x-6[8:1],
,8,7-1[8:1],5,4-2[8:1],4-6[8:1],,,
,1,82,7,3-1[8:1],1-5[8:1],3,7x-2[8:1],
,4,3-6[8:1],1,8-5[8:1]*-3[8:1],,8,,
2b/6b,,57,6,2-5[8:1],5-3[8:1],2,7x-3[8:1],
,1,2-8[8:1],4,5-7[8:1],5-3[8:1],,,
,8,17,2,6-8b[8:1],8-4b[8:1],6,2x,
1b,{16}5,5,3,4,3,,5bh[8:1]/7bh[8:1],,,4bh[8:1]/5bh[8:1],,,3b/6b,,
{8}
2-4[8:1],,4x,5-7[8:1],,4x,,3,
3-5[8:1]/5,,7x,6h[4:1],,5,4x/7x,,
7-5[8:1],,5x,4-2[8:1],,5x,,6,
6-4[8:1]/4,,2x,3h[4:1],,{16}7,7x,{8}1x-5b[32:5],,
5,,6<4[8:3],4,4,,5-1[32:5],,
6,,7<3[4:1],3,3,,1pp1[8:3],,
5,,7z3[16:5],7,8,,2,1xb,
,B7,C,B3,B8/E8,B2/E2,B6/E6,B4/E4,
8-6[8:1],,5x,4-2[8:1],,5x,,6,
6-4[8:1]/4,,2x,3h[4:1],,4,5x/2x,,
1-3[8:1],,4x,5-7[8:1],,4x,,3,
3-5[8:1]/5,,7x,6h[4:1],,{16}2,2x,{8}8x-4b[8:1],,
4,,3>5[8:3],5,5,,4-8[32:5],,
3,,2V46[4:1],6,6V82[4:1],,8,,
4-1[8:1]*-7[8:1],,4x,,26,{16}3,4,3x,,{8}5b/4b,
{8},6,57,{16}3,4,{8}2,{16}6,4,{8}8,17,
2bV48[4:1]/6b,,8,7-5[8:1],,1,2h[8:1],4,
3V51[4:1]/5,,7,8-6[8:1],,2,3h[8:1],4,
4V62[4:1]/5,,8,1-7[8:1],,3,4h[8:1],6,
2-5[8:1],8-4b[8:1],2,8,,1,2x-5[8:1]/8x-4[8:1],,
,,6,5/7<5[8:1],,4,4q8[32:5],,
3,2q7[4:1],,7v2[16:3],,8,8,,
1>5b[4:1],,7,6h[4:1],,{16}3,4,3,,{8}6b/2b-6[8:1],
,2/7-3[8:1],,27,1h[8:1],{16}8,1,8,1,{8}8,
7bV51[4:1]/3b,,1,2-4b[8:1],,8,7h[8:1],5,
6V48[4:1]/4,,2,1-3b[8:1],,7,6h[8:1],5,
5V37[4:1]/4,,1,8-2b[8:1],,6,5h[8:1],4,
6<1[8:1],1>4b[8:1],6,5xh[4:1],,6,3x/7x-3[8:1],,
1,1p5[16:3],,5p1[16:3],,7,,{16}8,8,
{8}2>5[8:1],,6,6p1[16:3],,8-3[8:1]*-4b[8:1],,,
,{16}6,6,{8}5,54,{16}3,4,3,4,2,,{8}1b/5b,
,37,3b/7bh[4:1],,{32}E6,E7,E8,E1,E2,E3,E4,,5-1[16:5],D6,D7,D8,D1,D2,D3,D4,
{4}5xh[4:2],,{8}1b,{16}5,4,5,4,5,,
{8}24,3,7-4[8:1],4<5-8[16:3],7,2-6b[8:1],1,2x,
,7-5[8:1]/4-8[8:1],8,74,,21,{16}3,4,3,,
{8}5/7V52[4:1],,3,4V62[4:1],,7,8-5b[8:1]*-3[8:1],8,
,,62,5<8[8:1]/1>4b[8:1],,5b/1b,,73,
2-8[8:1]/1,,7-2[8:1],6h[8:1],,{16}5,5,4,,{8}36,
7-4[8:1],4-6[8:1],7,1-5[8:1],,8,8h[8:1],4,
6,5-1[8:1]/7-4[8:1],,57,,{16}2,2,6,,{8}45,
3b/7b,{16}6,5,7,,{4}8b-4b[8:1]/4b,{16}3,2,1,8,7,6,
{8}7x/5x,8,2-6[8:1],6>4-8[4:1],2,8,7,6,
2-4[8:1],5-1[8:1],2,5,,78,{16}6,5,6,,
{8}4/2V47[4:1],,6,5V37[4:1],,2,1-4b[8:1]*-6[8:1],1,
,,37,4>1[8:1]/8<5b[8:1],,4b/8b,,26,
7x-4[8:1]/8x,,3-7[8:1],2h[8:1],,{16}1,1,8,,{8}27,
3-8[8:1],8-4[8:1],3,6-3[8:1],,1,1h[8:1],8,
2,3-5[8:1]/4-8[8:1],,34,,{16}7,7,3,,{8}45,
2b/6b,{16}3,4,2,,{8}1bw5b[8:1]/5b,,{48}B1`Cf`B5/B6/B4,,,,,,{4},
{8}3x/7x,3,24,{16}6,5,6,,{8}78,16,{16}3,4,
{4}2b-6[8:1],8b-4[8:1]/2b-4[8:1],2b-6b[8:1]/8b,5bw1[8:1],
{8}5b,,37,1,5,46,{16}8,1,7,,
{16}E1/3bh[8:1],,,C/7bh[8:1],,,E5/1b,,5xh[8:1],,,4h[8:1]/6h[8:1],,,37,,
{4}3b/7b,
