&title=Lo-Fi-M
&artist=yaseta
&first=0.02
&des=拯救杯哈哈
&lv_5=13+
&inote_5=(140)
{1},
{8}1/5h[4:1],,E7,,2/5h[4:1],,E7,,3/5h[4:1],,E7,,4/5>3[32:3],4,E7,,
{8}8/4h[4:1],,E3,,7/4h[4:1],,E3,,6/4h[4:1],,E3,,5/4<6[32:3],5,E3,,
{8}1/5h[8:1],,5x/E7,,2/5h[8:1],,5x/E7,,3/5h[8:1],,5x/E7,,4h[16:1]/5<8[32:3],4h[16:1],2x/5x,,
{16}8/4h[8:1],,,,2x/6x,,4,5,3xh[8:1],,5,4,6xh[8:1],,3,4,2xh[8:1],,6,5,7xh[8:1],,2,8,
{4}1xbw5[32:3],1/C,
{16}3/7xh[8:1],,,,B3,B4,B6,A6,3/7xh[8:1],,,,B3,B4,B6,A6,
3/7xh[8:1],,,,B3,B4,B6,A6,3/7xh[8:1],,5x,,5/6,,4,,
{16}6/2xh[8:1],,,,B6,B5,B3,A3,6/2xh[8:1],,,,B6,B5,B3,A3,
6/2xh[8:1],,,,B6,B5,B3,A3,6/2xh[8:1],,4x,,3/4,,5,,
{16}3x/7x,,8,,B3,B4,E8,A7,2x/6x,,1,,B6,B5,E2,A2,
3x/7x,,8,,B3,B4,E8,A7,2x/6x>4[32:3],,2,,6/2h[4:1],,,,
{16}5x,4x,2x,3x,6x,5x,2x,3x,6x,5x,3x,4x,7x,6x,3x,4x,
7x,6x,4x,5x,8x,7x,4x,5x,8v6[8:1]*z4[8:1],,1/7,,8b,,,,
{4}5pp1[2:1]/3,3,3,3,8<5[8:1]/3,3,{8}3h[8:1]/4,,5/6h[8:1],,
{4}8pp3[2:1]/7,7,7,7,4-8[8:1]/7,7,{8}6h[8:1]/1,,7/3h[8:1],,
{4}8-3[32:3]/5h[8:1],8/2h[8:1],1-6[32:3]/4h[8:1],1/7h[8:1],
{8}8-4[32:3],8,1-3[32:3],1,7,8,1/2,,
{24}3/7bx,,,7,,,7,,,7,,5,6bx,,,6,,,6,,,6,,4,
5bx,,,5,,3,4,,3,4,,3,4bx-7[32:3]*-1[32:3],,,2/6,,,4b,,,,,,
{1}1>8[4:3]/8,
{4}5p4[2:1],,,Ch[16:1],
{16}2,4,3,5,2,,6,4,5,3,4,,3,4,2,5,
{16}1,,8,1,8,2,8,3,8,4,7,5,6,,1/8,,
{8}4h[4:1]/3,,B1/B2,,6h[4:1]/5,,B7/B8,,
{8}4h[4:1]/3,,B1/B2,,6h[4:1]/5,,B7/B8,,
{8}3h[4:1]/4,,E1/E2,,5h[4:1]/6,,E1/E8,,
{8}3h[4:1]/4,,1h[4:1],,8h[4:1],,6,,
{8}6h[8:1]/E1,,4h[8:1]/C,,2h[8:1]/E5,,1b/8b,,
{16}7,4,5h[8:1],,2-6[8:1],,2,,7-5[8:1],,7,,1,,1,,
{16}2,5,4h[8:1],,7-3[8:1],,7,,2-4[8:1],,2,,8,,8,,
{16}7,4,5h[8:1],,2-6[8:1],,2,,7<4[8:1],,7,,1,,1,,
{16}2,5,4h[8:1],,7-3[8:1],,7,,2>5[8:1],,2,,1h[16:1],,8h[16:1],,
{16}7bx,4,5h[8:1],,3,,4,,2bx,5,4h[8:1],,6,,5,,
{16}7bx,4,5h[8:1],,6,,4,,2bx,5,4h[8:1],,3,,,,
{16}6,5,7,,8,1,8,,2,4,3,,5,4,5,,
{24}6bx,7x,8x,1x,2x,3x,{32}4bx,5,6,7,8,1,2,3,{4}4bw8b[32:3],4b/Cf,
{16}2-6[32:3],1,3,8,2,,7,8,1-5[32:3],2,3,,1/6x,,8,,
{16}6/7,,8-4[32:3],1,7,2,8,,2,5,3,4,1,,8/2,,
{16}7-3[32:3],8,6,1,7,,2,1,8-4[32:3],7,6,,3x/8,,2,1,
{16}3h[8:1],,5,4,6,5,7,8,6,1,5,2,4,,1/2,,
{16}3,3,4,2,8,1,8,,
{4}7b/3bp6[4:1],6q3[4:1],3>6[4:1],6>3[32:5],1bxw5[32:3],1,
{16}7,8,6,1,7,5,6,4,8,1,7,2,6,4,5,3,
{16}1,2,6,5,1,2,6,5,1-6[32:3]*-7[32:3],2,4,3,1b,,,,
{4}2b-5[32:3]/5,2b-6[32:3]/6,8>3[32:3]/2b,8b/7,
{16}4/7,,6,5,7,4,6h[8:1],,3,4,2,5,1-5[32:3],,,,
{16}8/1b>6[4:1],,,,6qq3[32:12],,,,8>3[8:1],,,,,,,,
{8}1/3,3,2/4,2,1<6[32:3]/8>3[32:3],,1b/8b,,{16}6,6,5,7,1,8,1,,
{4}2b/6bq3[4:1],3p6[4:1],6<3[4:1],3<6[32:5],8bxw4[32:3],8,
{16}2,1,3,8,2,4,3,5,1,8,2,7,3,5,4,6,
{16}8,7,1,6,2,5,3,4,1v4[8:1]*s5[8:1],,2/8,,1b,,,,
{16}3/7xh[8:1],,,,D2,B2,B6,D6,3/7xh[8:1],,,,D2,B2,B6,D6,
3/7xh[8:1],,,,D2,B2,B6,D6,3/7xh[8:1],,1,,7/8,,4/5,,
{16}6/2xh[8:1],,,,D8,B7,B3,D4,6/2xh[8:1],,,,D8,B7,B3,D4,
6/2xh[8:1],,,,D8,B7,B3,D4,6/2xh[8:1],,8,,1/2,,4/5,,
{16}3x/7x,,8,,D3,B3,B7,D7,2x/6x,,1,,D7,B6,B2,D3,
3x/7x,,8,,D3,B3,B7,D7,2x<7[32:3]/6x-4[32:3],,3/5,,6/2,,,,
{16}5,4,2,3,6,5,2,3,6,5,3,4,7,6,3,4,
7,6,4,5,8,7,4,5,8v3b[8:1]*z4b[8:1],,1/7,,8b,,,,
{1}1b/8b,,,E
