&title=Devillic Sphere
&artist=3R2
&first=0.13
&des=Hoshisphere
&des_5=Hoshisphere
&lv_5=13+
&inote_5=(160)
{1},
{16}2h[4:1],,,,,4,,3,3h[4:1],,,,B1/E2,,,,7h[4:1],,,,,5,,6,6h[4:1],,,,E8/B8,,,,
{16}1h[4:1],,,,,4h[16:7],,2,2h[16:5],,,,,5,,3,3h[4:1],,,,,6h[16:5],,4,4h[4:1],,,,,,7b,,
{16}7bh[4:1],,,,,5,,6,6h[4:1],,,,B8/E8,,,,2h[4:1],,,,,4,,3,3h[4:1],,,,E2/B1,,,,
{16}8h[4:1],,,,,5h[16:7],,7,7h[16:5],,,,,4,,6,6p7[4:1],,,,,,,,,,4b,,4b>7[4:1],,,,
{16}7bq5p7[2:1],,,,5,5h[8:1],,,7q6p7[2:1],,,,6,6h[8:1],,,7>5>7[2:1],,,,5,5h[8:1],,,7q3[8:1],,,,5<2[4:1],,5h[16:1],,
{16}2bp4q2[2:1],,,,4,4h[8:1],,,2p3q2[2:1],,,,3,3h[8:1],,,2<4<2[2:1],,,,4,4h[8:1],,,2,,,,3xp7q5[2:1],4x,3x,4x,
{16}3bx,,,,5>7[4:1],,,7,7q6p8[2:1],,,,6h[16:1],,,8,8>5V31[2:1],,,,5h[16:1],,,1,1s5[4:1],,,,6q2p4[2:1],,6h[16:1],,
{16}6bx,,,,4<2[4:1],,,2,2p6[8:1],,,,3h[16:1],,,1,1b-3[8:1]*-4[8:1],,,,1b-7[8:1]*-6[8:1],,,,1b-5[8:1],,,,C,,,,
{16}2b-8[8:1]/7b,,,,2-5[8:1],5,,4h[16:3],2,,,,6<1[8:1],5,,5h[16:3],6,,,,4V28[8:1],8,,7h[16:3],4,,,,6,5,6,5,
{16}7b-1[8:1],,,,7-4[8:1],4,,5h[16:3],7,,,,3>8[8:1],4,,4h[16:3],3,,,,5p8[8:1]*q2[8:1],,6/4,,5,,,,3x/7x,,
{24}E3,B3,B4,
{16}E5/8,8,2,2,
{16}6b-4[8:1],,,,6<8[8:1],1,,2h[16:3],6,,,,4>1[8:1],,,,4-8[8:1],6,,7h[16:3],4,,,,7/8,,1h[4:1]/6-2b[8:1],,,,6,,8b>3[8:1],,,,8-4[8:1],5,,6,8,,6,,
{4}7h[2:1]/3b,A8/D1/A1/E1,B5/B4/Chf[4:1],8bx<6[8:1],
{16}8-5[8:1]/4h[8:1],,,,8-4[8:1]/3h[8:1],,,,8/2h[8:1],,,,1>3[8:1],5,,5h[16:3],1-4[8:1],,,,1-5[8:1]/6h[8:1],,,,1/7h[8:1],,,,8<5[8:1],,8,,
{16}8p4[8:1]/4h[8:1],,,,8v3[8:1]/3h[8:1],,,,8/2h[8:1],,,,1>4[8:1],5,,5h[16:3],1q5[8:1],,,,1v6[8:1]/6h[8:1],,,,1/7h[8:1],,,,7-5[8:1],,7,,
{16}7-4[8:1]/3h[8:1],,,,7-3[8:1]/2h[8:1],,,,7/1h[8:1],,,,2-4[8:1],7,,6h[16:3],2-5[8:1],,,,2-6[8:1]/7h[8:1],,,,2/8h[8:1],,,,8-4[8:1],,7/1,,
{16}8v6[8:1]/2h[8:1],,,,8v2[8:1]/3h[8:1],,,,8/4h[8:1],,,,3,1,,1,
{4}4b<7[8:1]*>1[8:1],4bw8[8:1],4b,
{8}1x-3[8:1],1x,
{16}8xh[8:1]/1bx-7[8:1],,,,1s5[8:1]/2xh[8:1],,,,1/8xh[8:1],,,,8-6[8:1],2,,1h[16:3],8x-2[8:1],,,,8z4[8:1]/7xh[8:1],,,,8/1xh[8:1],,,,1-6[8:1]/8,,2/7,,
{16}1-4[8:1]/8xh[8:1],,,,1<4[16:3]/2xh[8:1],,,,1/7xh[8:1],,,,8-3[8:1],2,,1h[16:3],8x-5[8:1],,,,8>5[16:3]/7xh[8:1],,,,8/2xh[8:1],,,,8,,1/8,,
{8}1b>4[8:1]/2b<7[8:1],,1-5[8:1]/2-6[8:1],,1/2,,E1/B1/E2/B2/E3/D2/A1/A2/Ch[8:1],,
{8}8b<5[8:1]/7b>2[8:1],,8-4[8:1]/7-3[8:1],,8/7,,E1/B8/E8/B7/E7/D8/A8/A7/Ch[8:1],,
{16}2,2h[8:1],,4,4h[8:1],,3,1,4,8,3h[8:1],,7,2h[8:1],,8,
{16}8h[4:1],,,,,C,,8,8h[4:1],,,,,,2,,
{4}2b<3<2[2:7]/7bh[4:15],,,,,,,,,,,,,,
{8},,,5,
{4}5<4b[2:3]/1h[1:2],,,,,,,,Ch[1:1],,,,
{8}3h[4:1],4,6h[4:1],5,2h[4:1],4,7h[4:1],8,
{8}1b-5[8:1],,1-3[8:1]/4h[8:1],,1/6-2[8:1],,6-8[8:1]/1h[8:1],,6-3[8:1]/3<5[8:1],,6-2<7[4:1]/3,,6/2,,3,4,
{8}4x-6[8:1]/6x-2[8:1],,4V28[8:1]/6,,4V68[8:1],,4-1[8:1],,4-8[8:1],,2h[8:1]/4-7[8:1],,3h[8:1]/4-6[8:1],,4/C,,
{8}8b-4[8:1]/1b,,8-6[8:1]/5h[8:1],,8/3-7[8:1],,3-1[8:1]/8h[8:1],,3-6[8:1]/6>4[8:1],,3-7>2[4:1]/6,,3/7,,6,5,
{8}5x-3[8:1]/3x-7[8:1],,5V71[8:1]/3,,5V31[8:1],,5,
{24}B8,C,B4,
{16}A4f/1bx,,,,2,2,6,6,4h[32:1],5,4h[32:1],5,
{24}3h[8:1],,,8,7,6,
{4}5/1-3b[8:1],1/4-8[8:1],4/7-5b[8:1],7/1-3[8:1],1/4-8b[8:1],4/7-5[8:1],7/1-6[8:1]*-4[8:1],1,
{4}8-6b[8:1],8/5-1[8:1],5/2-4b[8:1],2/8-6[8:1],8/5-1b[8:1],5/2-4[8:1],2/8-3[8:1]*-5[8:1],8b,
{24}2bx>5[8:1]/6bx,,,,,,2x/6x,7x,8x,1x,,,1bx<6b[8:1]/5bx,,,,,,1x/5x,4x,3x,2x,,,
{24}7bx<4[8:1]/3bx,,,,,,7x/3x,2x,1x,8x,,,8bx>3b[8:1]/4bx,,,,,,8x/4x,5x,6x,7x,,,
{8}8bx-4[8:1],,8bx<5[8:1]*>3[8:1],,8bxw4[8:1],,8bx,,
{16}2bxh[4:3]/6bx,,D8,E8,A7,B7,D7,E7,A6,B6,E6/D6,,A5/B5,,,,
{16}1b/8b,,,2,2h[8:1],,3,3,1<6[8:1],4,3h[4:1],,1,,,,
{16}1x/5x,,,7,7h[8:1],,6,6,8>3[8:1],5,7h[4:1],,8,,,,
{16}4x/8x,,,6,6h[8:1],,8,8,5>2[8:1],3,6h[4:1],,5,,,,
{16}5x/1x,,,3,3h[8:1],,1,1,4<7[8:1],6,3h[4:1],,4,,,,
{16}3bx/7bx,,,4,4h[8:1],,7,7,8q4[8:1],6,1h[4:1],,8,,,,
{16}2x/5x,,,5,5h[8:1],,2,2,1p5[8:1],3,8h[4:1],,1,,,,
{16}7x/4x,,,8,8h[8:1],,3,3,4q8[8:1],2,5h[4:1],,4,,,,
{4}1bx<6[8:1]*>4[8:1],1bxw5[8:1],1bx,3x/7x,
{16}2,2h[8:1],,6,6h[8:1],,4,4,5<2[4:1],3,7h[4:1],,5,,,,
{16}6,6h[8:1],,3,3h[8:1],,8-4b[8:1],8,4-2<8[16:3],4-6<8[8:1],8,,,,,,
{16}6x,6xh[8:1],,3,3h[8:1],,5,5,4>7[4:1],6,2h[4:1],,4,,,,
{16}3bh[8:1],,4,2,5,3,6,,6bh[8:1],,5,7,4,6,3,,
{4}1b<6[8:1]*>4[8:1],1bw5[8:1],1b,B6/B5/B4/B3/Cf,
{4}8b>3[8:1]*<5[8:1],8bw4[8:1],8b,B3/B4/B5/B6/Cf,
{16}1,1bh[8:1],,3,3bh[8:1],,5,5,6,6,7,7,
{32}8,1,2,3,4,5,6,7,
{4}4bp2[2:1]/8bp6[2:1],,,,3/7,,,,,,,,
