&title=アイル (Harmonized ver.)
&artist=Machico、愛美、阿部里果
&first=0
&des=DfC
&lv_5=13
&inote_5=(180)
{1},,,,,,{16},,,,,,,
{1}1-5[1:1],
6,
7-3[1:1],
4,
2p4[1:1],
5,8q6[1:1],
{4}3h[1:1],,4,5,
6h[1:1],4,3,2,
2h[1:1],6,7,8,
8h[1:1],2,3,4,
4h[2:1],5,{8}6-4[8:1],6,3,,
2,1h[4:1],,6,37,,5,6h[4:1],
,3,48,,{12}5,4,6,5,,,
{8}42,3,4,75,6,5,6qq8[4:3]/2pp8[4:3],62,
,,,,,,,,
2-5[8:1],,8,,7,6,35,4h[4:1],
,6,47,,3,3,15,,
6v1[8:1],,5,,2,3,48,7h[4:1],
,6,57,,8,8,16,,
7-4[8:1],,1,,2,3,64,5h[4:1],
,3,52,,6,6,84,,
3v8[8:1],3,4,,{16}7,1,7,1,7,,8b-2[8:1]*-3[8:1],,
{8},8b-5[8:1]*-6[8:1],,8b,,1,37,,
2-4[8:1],,24,,5,5,46,,
7-5[8:1],7,5,,4,4,35,,
7h[4:1],,5h[4:1],,4h[4:1],,1<2[8:5],1,
,5,5,,6,6,36,,
7-5[8:1],,75,,4,4,53,,
2-4[8:1],2,4,,5,5,64,,
3h[8:3],,8<1[2:1],8,,2,2,,
3,4,24,,6,5,57,,
3-1[8:1],,34,,2,2,38,,
6-8[8:1],6,5,,7,7,16,,
8>3[4:1],,3<6[4:1],,6qq8[2:1],,1,1,
,3,3,,5,5,26,,
6-8[8:1],,65,,7,7,61,,
3-1[8:1],3,4,,2,2,83,,
1V35[4:1],,5V71[4:1],,8h[4:1],,,,
4h[4:1]/5h[4:1],,,,26,26,37,37,
8p5[8:5],8,,,2-5[8:1],,,,
3h[4:1],,4,,57,,1h[8:3],,
3pp8[8:5],3,,,2v8[8:1],,,,
7h[4:1],,6,,34,,2h[8:3],,
1pp6[8:5],1,,,1v6[8:1],,,,
5h[4:1],,7,,28,,3h[4:1],,
4h[4:1],,5h[2:1],,6h[4:1],,,45,
3h[4:1],,2,,17,,8h[8:3],,
7pp4[8:5],7,,,6v4[8:1],,,,
2h[4:1],,3,,56,,1h[8:3],,
4pp3[8:5],4,,,4v3[8:1],,,,
,57,4,3,1-6[8:1]/2-6[8:1],,12,,
5-8[2:1],,3,,3,,3,,
2-7[2:1],,6,,6,,6,,
7q8[2:1],,4,,4,,4h[4:1],,
2h[4:1],,1h[4:1],,5,,47,,
2,2h[4:1],,8,18,,6,6h[4:1],
,4,5,6,3-8[8:1]/7-2[8:1],,,,
1-5[8:1],,13,,1-5[8:1],2,13,3h[4:1],
,7,15,,{16}8,7,6,5,1,2,3,4,
{8}5V74[4:1],,4<1[4:1],4,,2,4,,
2V41[4:1],,1>6[4:1],1,,5,7,,
1-3[8:1],,1/8-4[8:1]*-4[8:1],,7qq1[8:3]/8,,5h[2:1]/7,,
,,,,3-8[8:1],3,5,,
1>4[8:1],,14,,8<5[8:1],8,5,,
3-6[8:1],,31,8,7-2[8:1],7,4,,
6v1[8:1],6,5,,{16}4,5,4,5,4,,2bV84[4:1]/7bV15[4:1],,
{8},,,,3,2,18,,
4V25[4:1],,5>8[4:1],5,,7,5,,
7V58[4:1],,8<3[4:1],8,,4,2,,
8-6[8:1],,8/1-5[8:1]*-5[8:1],,2pp8[8:3]/1,,4h[2:1]/2,,
,,,,6-1[8:1],6,4,,
6>3[8:1],,16,,2<7[8:1],2,5,,
8-5[8:1],,28,3,4-1[8:1],4,6,,
7h[4:1],,8,7,6,5,46,3,
2-6[8:1],,1-5[8:1]/2,,1/8-4[8:1],,7-3[8:1]/8,,
{1}7qq8[2:3]/2h[4:7],
,
{8}3h[8:7],,,4,,5,,6h[1:1],
,5,,4,,3h[4:1],,,
4>2[2:1],,,,,,,,
5<7[2:1],,,,,,,,
4,35,5,46,3,24,6,4b/8bs4[4:1]*z4[4:1],
,,,,15,26,37,48,
1/5V37[4:1],,7V15[4:1],7,,6,8,,
1V73[4:1],,3V51[4:1],3,,2,4,,
3-1[8:1],,3/4-8[8:1]*-8[8:1],,4/5pp4[8:3],,2h[2:1]/5,,
,,,,3-8[8:1],3,4,,
1>4[8:1],,13,,8<5[8:1],6,8,,
2-7[8:1],,24,5,6-3[8:1],8,6,,
5,6,47,,35,{16}2,4,2,,1bV37[4:1]/6bV48[4:1],,
,,,,,,,,6h[8:1],,8,7,1,,5,3,
{8}4V62[4:1],,2V84[4:1],2,,3,1,,
8V26[4:1],,6V48[4:1],6,,7,5,,
6-8[8:1],,6/5-1[8:1]*-1[8:1],,5/4qq5[8:3],,7h[2:1]/4,,
,,,,{12}6,5,7,3,4,2,
{8}15,1h[4:1]/5,,6,38,,25,2/5h[4:1],
,3,4,5,4-7[8:1]/6-3[8:1],,,,
2>5[8:1],1,8,7>2[8:1],6,5,4,3,
24,24,15,15,26,26,37,37,
{1}8q1[1:2],
,
{8},,,,,,45,7b-4[8:1],
,2b-5[8:1]/7b,,2b/8b-4[8:1],,1bw5[8:1]*-5[8:1]/8b,,1b,
