&title=И00.
&artist=Se-U-Ra
&first=-0.65
&des=Xzzzz
&lv_5=14+
&inote_5=(192),,,,
{8}1>7[1:1]/6h[8:6],,,,,,,8h[8:3],,,,,,2,3,4,
{8}5<3[1:1]/7h[8:6],,,,,,,4h[8:3],,,,,,,6,,
{1}7qq4[1:1]/3h[1:1],
{8},,,1,2>5[4:1],,,,
{1}7p4[4:3],
{4}1b,,
{16}4,5,3,6,2,7,1,8,
{32}2b/7h[8:1],3,4,5,{8},7,{32}2b/8-4[8:1],3,4,5,
{8},,1,,,8h[8:1],6h[8:1],4h[8:1],2h[8:1],
{16}8,1,8,1,8,1,
{32}7b/2h[8:1],6,5,4,{8},2,{32}7b/1-5[8:1],6,5,4,
{8},,7,,
{8}8h[4:1],,{32}4,5,6,7,8,1,2,3,{8}7h[4:1],,{32}3,4,5,6,7,8,1,2,
{8}37,7,26,2,15,5,26,2,37,3,46,4,53,53,62,62,
{16}1,6,3,5,2,7,4,5,
{32}2,3,4,5,6,7,8,1,2,3,4,5,6,7,8,1,
{1}2z6[2:1],
{8}5,,5h[4:1],,,5,,5h[4:1],,,5h[4:1],,,5h[4:1],,,
{8}5`1b,,5h[4:1],,,5,,5h[4:1],4qq1[2:1],,5h[4:1],,,5h[4:1],,,
{32}5`2,3,,,{8},5h[4:1],,,5,,5h[4:1],,,5h[4:1],4,,5h[4:1],4,,
{4}5bq8[2:1]/4b-1[4:1],,,,
{8}2h[4:1],7,6,5-2[8:1]*-8[8:1],4,5,,,
{16}1h[8:1],,7,,46,,3,5,3,,7,,2,,6,6,
{16}3h[8:1],,6,,17,,2,8,2,,5,,7,,3,3,
{16}7h[8:1],,2,,64,,5,3,5,,1,,7,,2,2,
{16}6h[8:1],,4,,28,,1,7,1,,6,,4,,5,5,
{16}3h[8:1],,7,,46,,3,5,1,,7h[8:1],,2,,7,7,
{16}1h[8:1],,6,,35,,4,6,2,,7h[8:1],,1,,6,6,
{16}2h[8:1],,8,,17,,2,8,4,,16,,3,,7,7,
{8}2V46[4:1],,6p2[8:1],8-4[8:1],,8,,,
{4}1h[4:1]/7-5[8:1],,2h[4:1]/4-6[8:1],,1h[4:1]/8<5[8:1],,2h[4:1]/4<7[8:1],,
{8}8<3[2:1]/1h[4:1],,,,1,2bz6[4:1],,6z2[4:1],,8,,8-4[8:1],,81,2,3,
{4}7h[4:1]/5>2[8:1],,8h[4:1]/1>4[8:1],,7h[4:1]/5-2[8:1],
{16},,8,8,
{2}1bs5[8:1],
{8}2h[4:1]/6,6,6,3/7h[4:1],4>1[8:1],4,4b,5,
{16}6,8,6,8,6,1,6,1,6,2,6,2,
{8}5>6[8:6],2qq5[8:5],
{1}2,
{8}8,8,17,17,26,26,
{16}3,5,3,5,
{32}3bv8[8:1],4-8[32:3],5,6,7,8,1,2,
{32}3,4,,,{8},7-4[8:1]/2h[8:1],,1,2,7<4[8:1]/3h[8:1],,
{16}3,2,1,8,7,6,5,4,
{8}3-6[8:1]/7-2[8:1],26,3b-8[8:1]/7b-4[8:1],,
{32},,,,
{8},3-8[8:1]/7-5[8:1],6,37,,
{8}3-8[8:1]/5,2,3/6>4[8:1],7,6/1-5[8:1],2,1,,
{32}7[8:1]/2b-6[8:1],6,5,4h[32:5],,,,,
{8},,2>5[8:1]/8h[8:1],,8,7,2-5[8:1]/6h[8:1],,6<1[8:1],,
{16}2,3,4,5,6,7,8,1,
{6}2>5[6:1],6,7,8>3[6:1],4,5,6<1[6:1],3,4,5h[3:1],2,3,
{4},
{32}1-5[8:1]/8-4[8:1],27,36,45,,,,,
{4}1b/8b,27,
{16}2,8,2,8,1,1,1,1,1-5[8:1],1,1,1,1,,,,
{8}7<4[8:1]/2h[8:1],,2,,7-4[8:1]/3-1[8:1],4,37,,
{16}2-5[8:1],8,3,,2,,,,
{16}8v3[8:1],1,7<4[8:1],,8,,7,,
{32}2b-6[8:1],1,8,7,6,5,4,3,
{8}2,,3h[4:1]/7h[8:1],,
{24}7-3[8:1],6,5,8,1,2,
{4}7,
{24}1-5[8:1],2,3,8-4[8:1],7,6,
{8}1,8,2,73,
{12}6,4,7h,,7h,,3,5,2h,,2h,,7,4,8h,,8h,,2,5,1h,,1h,,
{1}8b<1[4:5]/2h[4:6],,
{1}2<3[4:5]/7h[4:6],,
{8}8-4[8:1],,,3,,,,2,1-5[8:1],,,8,,,,6,7-3[8:1],,,4,,,,1,
{32}2b/8b,3,4,5,6,7,8,1,27,36,45,,,,,,
{16}5,4,6,3,7,2,8,1,
{32}7b/2h[8:1],6,5,4,{8},2,{32}7b/1-5[8:1],6,5,4,
{8},,8,,,5h[8:1],3h[8:1],7h[8:1],
{16}1,8,1,8,1,8,1,8,
{32}2b/7h[8:1],3,4,5,{8},7,{32}2b/8-4[8:1],3,4,5,
{8},,2,,
{8}2q6[8:1],8<4[8:1],2,8,1h[16:1],1h[16:1],
{16}2,8,2,8,
{32}2b/7h[8:1],3,4,5,{8},7,{32}2b/8h[8:1],3,4,5,
{8},12,{32}1b/2b,38,47,56,{8},
{8}2>5[8:1],1,2,8,
{16}7,1,6,2,7,8,6,1,
{32}7b/2h[8:1],6,5,4,{8},2,{32}7b/1h[8:1],6,5,4,
{8},87,{32}8b/7b,61,52,43,{8},
{8}1h[4:1],,{32}5,4,3,2,1,8,7,6,{8}2h[4:1],,{32}6,5,4,3,2,1,8,7,
{8}62,2,73,7,84,4,73,7,62,62,51,51,62,62,73,73,
{8}4/8-4[8:1],8,8/2-5[8:1],2,2/7<4[8:1],7,7/1-5[8:1],1,
{8}1/6-2[8:1],6,6/3>8[8:1],3,3/7-4[8:1],7,72,2,
{16}2b,1,3,8,2,1,3,8,
{24}2,3,4,8,7,6,1,2,3,7,6,5,
{16}1b,6,3,8,2,5,4,7,
{32}1,2,3,4,7,6,5,4,2,3,4,5,6,7,8,1,
{32}2bqq5[2:1]/6b,37,4/8h[32:22],,
{8},,,,,,,
{16}4h[8:1]/2h[8:1],,,5h[8:1]/7h[8:1],,,
{16}4h[8:1]/6h[8:1],,,2h[8:1]/8h[8:1],,,
{32}1b,28,37,46,5,,,,
{16}37,,1>4[8:1],8,2,,1,,
{8}7-1[8:1],2-6[8:1],7,2,
{4}7-4[8:1],7/2>5[8:1],
{32}6,7,8,1,,,,,8pp3[2:1]/4pp7[2:1],37,26,15,,,,,
{4}48,,,
{8}8,17,6h[2:1]/2pp5[8:2],,,,,,
{16}8,7,6,5,
{12}3-1[8:1],3,4,3,,,6-8[8:1],6,5,6,
{24},4,3,2,
{12}1-5[8:1],1,1,1,,,7v2[8:1],7,7,7>6[8:11],,,
{12}3,5,4,6,,,,,,1,8,2,
{4}7>2[8:1],,,3-7[8:1],
{16}35,,6v1[8:1],8,5,,6,,
{8}4>1[8:1],7-3[8:1],4,7,
{4}2-5[8:1],2/7<4[8:1],
{32}3,2,1,8,,,,,5qq2[2:1]/1qq6[2:1],62,73,84,,,,,
{4}51,,,
{8}4,35,2h[2:1]/6qq3[4:1],,,,,,1s5[4:5],,
{4}1h[4:5],,,,,,7-3[16:1],,
{16}1h,5,3,
7h,3,5,
4h,6,2,
8h,4,6,
3h,5,1,7,
{24}4,5,4,5,4,5,
{16}3,6,2,7,
{32}1,2,3,4,5,6,7,8,1,2,3,4,5,6,7,8z4[2:1],
{1}1s5[2:1],
{32}2bv5[8:1]/7b,3,4,5,6,7,8,1,
{8}2,,7-5[8:1]/1h[8:1],,7-3[8:1]/1,2,3/7-5[8:1],,7/2>5[8:1],1,
{16}6,7,8,1,2,3,4,5,
{8}6-8[8:1]/1-5[8:1],,1-3[8:1]/6,,1-5[8:1]/7,7,7h[8:1]/1,,
{8}8-4[8:1]/4,7,8/3>1[8:1],2,3/7-3[8:1],6,7,,
{32}8b-4[8:1]/2b,3,4,5h[32:5],,,,,
{8}8,,7/2-4[8:1],7,2-6[8:1]/7h[8:1],,2>4[8:1]/8<6[8:1],,
{8}2/8,,2-5[8:1]/8-5[8:1],,28,,
{6}1>4[6:1],5,6,7>2[6:1],3,4,5<8[6:1],2,3,4h[3:1],1,2,
{8},,
{32}8b-3[8:1]/4b-7[8:1],73,62,51,,,,,
{4}84,26,
{16}3,5,3,5,4,4,4,4,4-8[8:1],4,4,4,4,,,,
{8}2-4[8:1]/7h[8:1],,2-6[8:1]/7,6,5/2-4[8:1],,2/7<4[8:1],8,
{16}3,2,1,8,7,6,5,4,
{8}3-6[8:1]/7-2[8:1],,7/3,,
{8}8bz4[8:1]/4b,,
{8}8,,
{8}37,,
{16}6,5,6,5,
{8}7h[4:1],,
{24}2,3,4,7,6,5,
{16}1,8,2,7,3,6,4,5,
{12}7h,2h,6h,,6h,,2h,8h,3h,,3h,,6h,1h,5h,,5h,,3h,8h,4h,,4h,,
{1},
{8}6,5h[4:1],4,3,6h[4:1],5,4,3h[4:1],6,5,4,3,6h,5h,4h,3h,
