&title=紅月の翼
&artist=紅鴉
&first=-0.6699997
&des=Uchiha Itachi
&lv_5=14
&inote_5=(212){4},,,,,,2,
2,
2,{12}2,1,3,8,4,7,5,,,{4}6,
{8}5/7,5,{4}6/5>2[8:1],5p1[8:1],
5-8[8:1],5,1,{8}2/4,2,
{4}6/2<7[8:1],2p6[8:1],2-5[8:1],2,
8,{8}7/5,7,{4}6/7>2[8:1],7q3[8:1],
7-4[8:1],7,2,{8}4/2,4,
{4}3/4<7[8:1],4q8[8:1],4-1[8:1],4,
8,{8}1,1,2<7[4:1],2,{4}7<4[4:1],
4>1[4:1],1,8,{8}7,7,
6>3[4:1],6,{4}3>8[4:1],8<5[4:1],5,
4,{8}3,3,2>5[4:1],2,{4}5<8[4:1],
8>3[4:1],3,4,{8}5,5,
6>3[4:1],6,{4}3>8[4:1],8<5[4:1],5,
2b,{8}3p7[8:1],3,{4}5q1[8:1],5-2[8:1],
5<8[8:1],5,2,{8}5q1[8:1],5,
{4}3p7[8:1],3-6[8:1],3>8[8:1],3,
6,{8}2q6[8:1],2,{4}8p4[8:1],8-3[8:1],
8<5[8:1],8,3,{8}8p4[8:1],8,
{4}2q6[8:1],2-7[8:1],2>5[8:1],2,
7,5/6h[4:1],5,7/5-1[8:1],
5/7-3[8:1],7,2,4/3h[4:1],
4,2/4-8[8:1],4/2-6[8:1],2,
7h[2:1],{8}6-2[8:1],6,,,{4}3h[2:1],
{8}2-6[8:1],2,,,4,4,5/3,5/3,
{4}6/2,{16}1,6,1,6,2,7,2,7,{32}2,3,4,5,6,7,8,1,
{4}4/2b>8[4:3],,,8>3[4:1],
3<6[4:1],6p2[4:1],2p6[4:1],6<2[4:1],
2>6[4:1],6V82[4:1],2V46[4:1],6pp2[4:3],
{1}8h[4:3],
{8},,2-7[8:1],7-2[8:1],2-5[8:1],5-2[8:1],,,,8s4[8:3],
{4}8-4[4:1],,,3h[2:1],
4,4,4<8[4:1],
8>4[4:1],4V68[4:1],8V24[4:1],4q8[4:1],
8q4[4:1],4<7[4:1],7>2[4:1],2qq6[1:1],
{1}3h[1:1],
{8},,3,4,5<8[4:1],5,4,4,
3,2,1>4[4:1],1,8,8,7,6,
{4}5b>7[4:3],,,7<4[4:1],
4>1[4:1],1q5[4:1],5q1[4:1],1<5[4:1],
5>1[4:1],1V75[4:1],5V31[4:1],1pp4[4:3],
{1}8h[4:3],
{8},,8-3[8:1],3-8[8:1],8-5[8:1],5-8[8:1],,,,1z5[8:3],
{4}1-5[4:1],,,6h[2:1],
5,5,5>1[4:1],
1<5[4:1],5V31[4:1],1V75[4:1],5p1[4:1],
1p5[4:1],5>2[4:1],2<7[4:1],7pp2[1:1],
{1}6h[4:3],
{8},,7,7,2,2,6,6,
3,3,{16}5p1[4:1],4q8[16:3],5,4,,,,,,,,,{8}2,
7-3[8:1],,7,{4}1-5[8:1],1>4[4:1],
4-1[8:1],6,{8}7,2-6[8:1],,2,
{4}8-4[8:1],8<5[4:1],5-8[8:1],3,
{8}2,7-3[8:1],,7,{4}1-5[8:1],1>4[4:1],
4,{8}6,6,4,4,3/7,3/7,
,1s5[8:3],{4}1-5[4:1],{8},,,,7,
2-6[8:1],,2,{4}8-4[8:1]*-3[8:1],8<5[4:1],
5-8[8:1],3,{8}2,7-3[8:1],,7,
{4}1-5[8:1]*-6[8:1],1>4[4:1],4-1[8:1],6,
{8}7,2-6[8:1],,2,{4}8-4[8:1]*-3[8:1],8<5[4:1],
5,2,{8}2-6[8:1],6<8[8:1],{4}8-4[8:1],
{16},,,,6h,7,8,1,4h,3,2,1,8,7,6,5,
{4}4b-7[8:1],{8}7,8-3[8:1],,3,{4}4<7[4:1],
7>2[4:1],4,5-2[8:1],{8}2,1-6[8:1],
,6,{4}5>2[4:1],2<7[4:1],5,
4-7[8:1],{8}7,8-3[8:1],,3,{4}4<7[4:1],
7>2[4:1],4,{8}5<7[8:1],7>1[8:1],1>3[8:1],3<5[8:1],
,6s2[8:3],{4}6-2[4:1],,,1-6[8:1],
{8}6,5-2[8:1],,2,{4}1<6[4:1],
6>3[4:1],1,8-3[8:1],{8}3,4-7[8:1],
,7,{4}8>3[4:1],3<6[4:1],8,
{8}1,1,1,2b/8b,,3,4/5,5/4,
4/5,6b/3b,,4,{24}3h,2,1,8h,7,6,3h,2,1,8h,7,6,
3h,2,1,8h,7,6,{4}5h[2:1],1,1pp6[4:5],
1h[2:1],,,8h[2:1],
,,{2}4h[2:1]/6pp2[1:1],
{4},6h[2:1],{8},,,,3h[4:1],
1,4h[4:1],1,5h[4:1],1,6h[4:1],8,
5h[4:1],8,4h[4:1],8,3h[4:1],1,4h[4:1],1,
5h[4:1],1,{4}6h[8:3],{8},5h[8:9],,,{1}6>2[4:3],
{8},,6/3,6/3,5/2,5/2,4/1,4/1,
,2/5,{4}3/6,{8},4/7,,,{1}4h[4:5]/7<2[1:1],
{4},,1s5[1:1],{8}7,7,
{4}7,3,{8}2,2,{4}2,
4/5,3/4,2/3qq7[2:1],3h[2:1],
,,7/6,6/5,
7/6pp2[2:1],6h[2:1],{8},,,,2h[4:1],
4,1h[4:1],4,8h[4:1],4,7h[4:1],5,
8h[4:1],5,1h[4:1],5,2h[4:1],4,1h[4:1],4,
8h[4:1],4,{4}7h[8:3],{8},8h[8:9],,,{1}7>2[2:1],
{8},,3/6,3/6,4/7,4/7,5/8,5/8,
,7/4,{4}6/3,{8},8/1,,,2/1,
2>5[8:1]/1q5[8:1],1/2,2/1,,,7/8,7<4[8:1]/8p4[8:1],
8/7,7/8,{24},,,,,,3h,2,1,8h,7,6,3h,2,1,8h,7,6,
3h,2,1,8h,7,6,{4}5h[2:1],,,1b/2b,
{8}1,1,{4}1pp6[2:1],1/8,
{8}7,7,{4}7,7/8,{8}8,8,
{4}8qq3[2:1],8/1,{8}2,2,{4}2,
3/2,{8}2,2,{4}2pp7[2:1],2/1,
{8}8,1,{4}8,6/7,{8}7,7,
{4}7qq2[2:1],7/8,{8}1,8,{4}1,
8/2,{8}1,1,{4}1-6[4:1],1/6<2[4:1],
{8}5,5,{4}5,1/7,{8}8,8,
{4}8-3[4:1],8/3>7[4:1],{8}4,4,{4}4,
1/3,{8}2,2,{4}2v7[4:1],2/7>2[4:1],
{8}5,4,{4}5,8/6,{8}7,7,
{4}7v2[4:1],7/2<7[4:1],{8}4,5,{4}4,
{8}6b/3<8[4:3],,,6h[8:5],,,,,,,5,
5,{24}8,7,6,5,4,3,{8}8,8,
,8h[8:1],{4}1h[4:1],2h[4:1],3h[4:1],
{8}5h[8:3],7h[8:1],,4h[8:3],{4}2h[8:1],{8}6h[8:3],7h[8:1],
,3h[8:3],{4}2h[8:1],{8}5h[8:3],6h[8:1],,2h[4:3],
1h[4:1],,,,,8h[8:11],,,{1}7<1[4:3],
{8},,8/7,8/7,6/1,1/6,5/2,5/2,
,2/6,{4}3/7,8/4,5>1[4:5]/1<5[4:5],
{1}5/1,
{4},,5h[2:1],{8}6,7,
{4}6,4h[2:1],{8}3,2,{4}3,
{8}5/4,5/4,5/4,6/3,,2,1-7[8:1],6,
1-3[8:1],4,{4}1,{8}8/1,1/8,8/1,6/3,
,4,{24}3h,2,1,8h,7,6,3h,2,1,8h,7,6,3h,2,1,8h[8:23]/5pp4[8:47],{1},,,{16},{48},{16}1,
2,{8}3qq4[8:19],
E
