&title=空種
&artist=そらだね-南条爱乃
&first=0
&des=Luvlily
&lv_5=14
&inote_5=(124){1},
{16},,,,,,,,,,,,,,,,
{16}6h[2:1]/5,,,,,,,,4,,,,3h[2:1]/5,,,,
{16},,,,7,,,,1h[4:1],,,,2h[4:1],,,,
{16}3h[4:1],,,,4h[4:1],,,,5,,,,5,,,,
{16}6q2[4:1]/4h[4:1],,,,,,,,3,,,,2q6[4:1]/4h[4:1],,,,
{16},,,,7,,,,8p3[16:5]*q5[16:5],,,,,,,,
{16},,,,4p8[16:5]/6p8[16:5],,,,,,,,,,,,
{16}2h[4:1]/5,,,,6,,4,,7,,3,,6h[4:1]/4,,,,
{16}2,,5,,3,,7,,2/8h[4:1],,,,1h[4:1],,,,
{16}8h[4:1],,,,1h[4:1],,,,2h[4:1],,,,3h[4:1],,,,
{16}4pp6[16:5],,,,,,,,,,,,6qq4[16:5],,,,
{16},,,,,,,,3q8[16:5]/6p1[16:5],,,,,,,,
{16},,,,2b/7b,,4,,3,,25,,6,,7,,
{16}1b-5[8:1]/8b,,1,,7,,6-2[8:1],,6,,4,,3-7[8:1],,3,,
{16}1,,8h[4:1],,1,,2,2,6b,,75,,46,,25,,
{16}3,3,4,,45,,6,5,7,,1,1,8,2,8,3,
{16}8b-4[8:1],,8,,2,,3-7[8:1],,3,,5,,6-2[8:1],,6,,
{16}8,,1h[4:1],,8,,7,7,3b,,6,6,5,,74,,
{16}3,3,4,,25,,7,7,5,,1,1,2,2,3,3,
{16}4b^6[8:1],,,,,,,,2,,3,,4^2[8:1],,,,
{16},,,,7,,6,,5^3[8:1],,,,,,,,
{16}2,,3,,4qq2[4:1]*pp6[4:1],,,,,,,,,,,,
{16}2<6[4:1],,,,,,,,5,,4q8[16:3],,3h[8:2],,,,
{16},,3,,7,,1>6[8:3],,5h[4:1],,,,,,7,,
{16}8,,1^6[8:1],,2h[4:1],,,,,,3,,6,5,7,4,
{16}6,,6,,6,,64,,6,5,6,,64,,6,,
{16}6,,64,,6,5,6,,64,,6,5,6,,64,,
{16}6,5,6,,64,,6,5,6,,48,,1,,26,,
{16}3,,35,,3^1[8:1],4,3,,3,,3,,38,,3,7,
{16}3,,35,,3,,3,,34,,3,2,3,,35,,
{16}3,1,3,,36,,3,8,3,,37,,46,,25,,
{16}1b>6[8:2]/7b,,1,,8,,8,,7>4[8:2],,7,,6,,6,,
{16}5,,5,2,4<2[8:2],2,4,,3,,3^5[8:1],,3,,2,,
{16}2q6[8:1],,2,,1,,1<4[4:1],,1,,3,,2,,1,,
{16}8b<3[8:2]/2b,,8,,1,,1,,2<5[8:2],,2,,3,,3,,
{16}4,,4,7,5,7,5,7,6,,6,8,7,,74,,
{16}8p4[8:1],4,8,,1,,1,,2,3,2,4,3,5,3,,
{16}4b^7[8:1]/6b,,4,5,3^8[8:1],,3,,6,,6,,1^6[8:1]/7,,1,8,
{16}2^5[8:1],,2,,7,,7,,8,,8,3,1^6[8:1],,1,,
{24}2,3,4,{16}5,,37,,3,8,4,,46,,7^4[8:1],5,6,,
{16}3/7b,,2,,{24}1,2,3,{16}46,,2^5[8:1],4,3,,2b/6,,7,,
{24}8,7,6,{16}5/3,,2,4,3,,45,,7,7,5,,46,,
{16}2,2,4,,35,,8,8,6,,57,,1,1,3,,
{16}2/4w8[4:1],,,,,,,,,,,,1b^6[16:2]/7b,,,,
{16}6qq4[8:1]/1^4[8:1],,,,1^6[8:1]/6,,,,5q1[8:1]/1pp3[8:1],,,,1/5,,,,
{16}4<1[4:1],,,,1pp8[8:3],,,,5pp5[8:2],,,,5qq5[4:1],,,,
{16}1h[4:1],,,,,,8,,{32}1p8[8:2],2,3,4,5,,,,{16}1bp4[8:1],,,,
{16},,,,{32}8^3[8:1],,,,4,,,,{16}8q5[8:1]*p3[8:1],,,,,,,,
{32}5q4[16:7]/6<3[16:7],,,,{16},,5b/6b,,,,,,,,,,5,,
{16}56,,7,7,8,,16,,2,2,1,,5b^2[16:2]/3b,,,,
{16}2qq8[8:1]/5^8[8:1],,,,5^2[8:1]/2,,,,1q5[8:1]/5pp7[8:1],,,,5<4[4:1]/1,,,,
{16}7,,,,8^5[8:1],,,,8p4[8:1]/2,,,,8pp2[8:1]/6,,,,
{16}84,,,,3^6[8:1]/5q1[8:1],,,,3/5,,,,7qq5[4:1]/1pp3[4:1],,,,
{16},,,,,,,,3^8[8:1]/4,,5,,6,,7^4[8:1],,
{16}8,,1,,2,,3,3,4,,48,,7,7,5,,
{16}15,,2,2,4,,{32}48,7,6,5,4,3,2,1,8,,,,
{16}2b^7[8:1]/6b,,3,5,2^5[8:1],,5p1[8:1],,2,,6,,8^5[8:1],,7,1,
{16}8v3[8:1],,3^8[8:1],,8^5[8:1],,5,,4p7[8:1],,{24}3,2,1,{16}8p3[8:1],,2,,8q5[8:1]/6,,1,,
{16}8b,,2,2,6^3[8:1],,7,5,6,,2,,18,,7,7,
{16}5^8[8:1],,6,4,5,,3,,2^5[8:1]/8,,1,8,2,,7q4[8:1],,
{24}3,2,1,{16}8,,2,,5,5,3,,47,,2,2,5,,
{16}48,,7,7,5,5,3,3,1,1,7,,
{16}7b^2[8:1]/3b,,6,4,7^4[8:1],,4q8[8:1],,7,,3,,
3b^6[8:1],,2,8,3^8[8:1],,8q4[8:1],,3,,7,,
6b^3[8:1],,7,5,6^1[8:1],,1p5[8:1],,6,,2,,
2b^7[8:1],,3,5,2^5[8:1],,5p1[8:1],,2,,6,,
8bp4[8:1],,7,2,8<2[4:1],,1,,8,,1,,
8bp4[8:1],,7,2,8<2[4:1],,1,,8,,1,,
8bp4[8:1],,7,2,8^3[8:1],,2,6,8q1[8:4]*<1[8:4],,6,4,
{16}8b,,,,,,,,,,,,2h[4:1]/4,,,,
{16}5,,4/7h[4:1],,,,3,,1h[4:1]/5,,,,7,,6,,
{16}5<4[8:3],,4,,3,,,,,,,,4-8[8:1]/5-1[8:1],,27,,
{16}4>5[16:5]/5<4[16:5],,,,,,,,,,,,2,5,4,1,
{16}3,8,1,4,3,8,2,7,8,6,8,5,8,4,8,3,
{16}8,4,8,,{24}2,3,4,{16}6,5,{24}7,6,5,{24}2,3,4,{16}1q5[8:1],,8,,
{16}7,,{24}6,7,8,{16}1,,1b/2b,,,,5,5,1^4[8:1],,1^6[8:1],,
{16}1s5[16:3],,,,,,,,6^1[8:1],,6^3[8:1],,6s2[16:3],,,,
{16},,,,3,,2^5[8:1],2,4,,{24}6,7,8,{16}1bw5[8:1],,,,
{16}1,,,,4,6,3,7,28,,1,,{32}78,6,5,4,{16}8,6,
{16}8,,
{32}21,3,4,5,{16}1,3,
{16}1,,
{32}68,5,4,3,{16}8,5,
{16}8,,
{32}31,4,5,6,{16}1,4,
{16}1,,
{16}2,2,4,4,6,6,8,8,3,3,5,5,
{32}1,2,3,4,8,1,2,3,7,8,1,2,6,7,8,1,
{32}5,6,7,8,4/1,5qq3[16:23]/2,6/3,7pp5[16:40]/4,
{32},,,,,,,,,,,,,,,,
{16},,,,,,,,,,,,,,,,
{16},,,,,,,,,,,,,,,,
{16},,,,,,,,3h[8:3],,,,,,4,,
{16},,,,6h[8:3],,,,,,5,,,,,,
{16}3qq1[2:1]/6pp8[2:1],,,,,,,,,,,,,,,,
{16},,3,,5,,7,,1b,,,,,,,,
{16},,,,,,,,,,,,,,,,
{16},,,,,,,,,,,,,,,,
{16},,,,,,,,,,,,,,,,
{16},,,,,,,,,,,,,,,,
{16},,,,,,,,,,,,,,,,
{16},,,,,,,,,,,,,,,,
{16},,,,,,,,,,,,,,,,
{16},,,,,,,,,,,,,,,,
{16},,,,,,,,,,,,,,,,
{16},,,,,,,,,,,,,,,,
{16},,,,,,,,,,,,,,,,
