&title=能面島神隠し事件
&artist=てにをは
&first=0
&des=Summer Joy
&clock_count=4
&lv_5=13+
&inote_5=(146.00)
{8},,,,,,,,
{16}2/8,,2,,4,3,4h[8:1],,
1h[16:3],,,7h[16:3],,,5,,
{16}4/6h[16:3],,,7h[16:3],,,8,,
1`2,,3/4,,5x,5x,,,
{16}2/6,,6,,1,8,1h[8:1],,
7h[16:3],,,4h[16:5],,,5,,
{16}6<3[8:2],,{24},,,3p6[8:2],,,{16},,
,,,,1b,,,,
{16}2/5,,2,,2/8,,3,4,,6,5,,1,8,2,7,
{16}3,,4,1,,6,5,,4-1[8:1]/7-3[8:1],,,,4/7,,,,
{16}2,,7,8,6,,5/4,,3,5,,8,4,,2/5,,
{16}1,8,5,7,3,4,2,6,1-4[8:1]*q6[8:1],,,,1,,,,
{16}7/3,,7,,7/2,,6,5,,3,4,,2/6,,8/1,,
{32}3h[8:4]/7,6,5,4,,2,1,8,
7,6,5,4,,2,1,8,
7w3[8:1],,,,,,,,
7,,,,,,,,
{16}2/8,,8,,4h[16:1]/6h[8:1],,,1/7,,3,5,,4h[8:1]/8h[8:1],,,,
{16}6,5,7,,2/8,,4/5,,7/2h[48:13],,{24}6x,5x,4x,{16}3xV57V13[8:6],,,,
{8}B7/B8/E8f,,,,,,,,
{8}8/4qq6[8:4],8h[8:3]/4,,,,,,,
{8}E2/E8,,E4/E6,,2,2,5,5h[8:1],
{8},4,7,4,3/5,{16}2,1,{8}2,6,
{8}8x,,8x,,7,7,3,3h[8:1],
{8},5,4,7,1/7,2,3/4,5,
{8}6hx[16:3],,6hx[16:3],,5-1[8:1]/7-3[8:1],,,,
{8},2,2h[8:1]/8h[8:1],,3/7,{16}6,1,6,,4,,
{8}5hx[16:3],,5xp3[8:3]*pp2[8:3],,,,,,
{16}1-5b[8:1],,,,1/8,,,,6h[8:1],,2,2,8,,4,,
{8}E6/3hx[16:3],,E8/3hx[16:3],,E6/4x,1x,4x/E8,1x,
{16}7-3[8:1],,,,8/7,,,,2h[8:1],,5,5,3,,7,,
{8}4hx[16:3]/6hx[16:3],,2hx[16:3]/8hx[16:3],,4xq8[8:1]/6xp2[8:1],,,,
{8}1V35[16:3],,1/8,,7h[8:1],,2/6,3/7,
{8}8x<5[8:1]/4x>1[8:1],,4xq8[8:1]/8xq4[8:1],,,,3/7,5,
{8}2-8[8:1]/6-8[8:1],,2/6,,4/6,5,2-4[8:1]/8-6[8:1],1,
{8}2-5[8:1]/8-5[8:1],,2-8[8:1]/8,,2/7-3[8:1],6,7/1v4[8:1]*v6b[8:1],,
{8}Cf,,,,5w1[8:1],,,,
{8}3x/7xq5[16:3],,1<6[8:1],,3q7[8:1]*v8[8:1],,,,
{16}1h[8:8],,E2,E3,E4,E5,E6,,
7,,7,,
,,8,,
{16}8h[8:6],,A7,A6,A5,A4,A3,,
2-6b[8:1],,2,,
,,,,
{8}7pp6[16:5],,7/6,5,4-8[8:1]*V25[16:3],,4,,
{16}E8,B7,B6,E6,E4,B3,B2,E2,
{8}E7,B4/E5,B8/E1,B2/E2,
{16}E7,B6,B5,E5,E3,B2,B1,E1,
{8}7x,7x,6x/8x,,
{8}4/1-4[8:1],,5V37b[8:2],6,7,,8p2q8[16:7],,
{8}1h[8:2],,,,Cf,,,,
{8}5/6-1[8:1],1/2v5[8:1],6,2,8-4[8:1],3x/4x,8/7V51[8:2],5x,
{8}2<7[8:1]/7,2b,2b>5[8:1]*-6[8:1],2,2b,,4/8,1/6,
{16}3v2[8:1]/5v6[8:1],,4/8,4/8,,,,,1v4[8:1]/7v4[8:1],,2/6,2/6,,,,,
{64}5bx,B6,B7,E8f,,
,,,
,,,,
,,,,
4bx,B3,B2,E2f,,
,,,
,,,,
,,,,{8}8bw4b[8:1],1/7,8b,,
{16}2x/5x<8[8:1],,7,1,
5qq3[16:3],,4,,
6/5pp7[16:3],,,,
4/5,,,,
{8}3x,1b/5b,4b/7b,1/5,3b-8b[8:1]/8b-4b[8:1],,3/8,,
{16}5-3[8:1]/6-1[8:1],,2/8,2/8,,,,,
4v6[8:1]/3v8[8:1],,7/1,7/1,,,,,
{8}1b/2b,4/5,7bV14b[8:2]/8b,4/5,2b/7b,,1bx,,
{16}2,8,4,,6/5-2-8-4[8:3],5/6,,,
{24}Cf,,,{16},,
,,,,
{8}A6/D7f/A7,,A2/A3/D3f,,B2/B7/Cf,,,,
{8}3b-8-4-7b[8:12]/7bs3[8:12],,,,,,,,
{8},,,,,,,,
{8}2h[8:2]/4h[8:3],,,,7h[8:2]/6h[8:3],,,,
{8}4/8<2[8:3],,,1,1-5b[8:1],,,,
{16}7-1[8:1],,4,4,7,,3,,
2-5[8:1],,4,4,2,,6,,
{16}4V28[16:3]/7V53[16:3],,,,4/7,,,,
B1/B5/B2/B6,,,,3/4,,7/8,,
{16}1-5[8:1]/6,,4,4,1-4[8:1],,7,,
1-6[8:1],,8,8,1,,5,,
{8}3>8[8:1]/4,2/5,3/4>7b[16:3],,5x-1[8:1]*v8[8:1],,{64},,B5,,C,,B1`B8,,{8},
{16}2hx[8:1]/7hx[8:1],,,5h[8:1]/4h[8:1],,,7h[8:1]/8h[8:1],
,,6h[8:1]/5h[8:1],
,,2/1V35V71[8:32],,,,
{16}7x,7,7,7,,,8x,8,
8,8,,,6xp4q6b[8:6],,6,,
{8},,,,,,,,
{16}3x,3,3,3,,,2x,2,
2,2,,,4xq5p4b[8:6],,4,,
{8},,,,,,,,
{8}Cf,,,A2/D7f/A3/A6/D3f/A7,,,1/8-2-7-3-6-4b[8:6],,
{8},,,,,,,,
{8}1>4[8:4]/5p8[8:4],,,,,,,,
{16}3h[8:4]/7h[8:2],,,,,,E6,E7,
E8,,,E3,,,E4,,
{8}6p5[8:3],,,,1pp5[8:3],,,,
{8}7p6[8:4]*q2[8:4],,,,,,,,
{8}3h[8:2]/8<3[8:3],,,,1,,5,,
{8}4/8,,2/6V82v4[8:3],,,,,,
{16}2h[16:8],,,4h[16:3],,,,,7h[16:8],,,6h[16:3],,,,,
{32}4bx,3bx,2bx,1bx,{8},,,{8},,{64}E8f,,,,,,,,{8},
{8}1/2>5[8:1],5/6<1[8:1],2,6,4q8[8:1],7x/8x,4/3>1q5[8:2],1x,
{8}6>3[8:1]/3,6b,6b<1[8:1]*-2[8:1],6,6b,,8/4,5/2,
{16}7>2[8:1]/1<6[8:1],,8/4,8/4,,,,,5p8[8:1]/3q8[8:1],,6/2,6/2,,,,,
{64}A1,B1,C,A5f,,
,,,
,,,,
,,,,
A8,B8,C,A4f,,
,,,
,,,,
,,,,{8}4b<8[8:1]/3bq8[8:1],1/2,3b/4b,,
{16}6x/1x>4[8:1],,3,5,
1-5[8:1],,7,,
1qq7[48:5]*pp3[48:5],,,,
1,,,,
{8}4x/7x,5b/1b,8b/3b,5/1,7bv4b[8:1]/4b-8b[8:1],,7/4,,
{16}1-6[8:1]/2-5[8:1],,6/4,6/4,,,,,
8>3[8:1]/7<4[8:1],,3/5,3/5,,,,,
{8}6b/1b,8b/3b,1b/4b,5b/7b,4b-1[8:1]/8b-5[8:1],,4b/8b,,
{32}2b/6hbx[8:3],3,4,5,,7,8,1,
2,3,4,5,,7,8,1,
2/5hbx[8:3],3,4,,6,7,8,1,
2,3,4,,6,7,8,1,
{32}2/7hbx[8:3],3,4,5,6,,8,1,
2,3,4,5,6,,8,1,
2v5[8:1]/6bv1b[8:1],,,,,,,,
2/6b,,,,,,,,
{16}4/7,,4,,5/6,,8,,
1,7,,2V48[8:2],
4,,5/6,,
{8}7>2[8:1],7b,7b<4[8:1]*-3[8:1],7,7b,,1x/5x,,
{16}3/7,,5,6,5,,4/7,,
3/8,3/8,,1/6,
1/6,,2/7,,
{16}3,4,6,5,2,3,7,6,
1s5[8:1]*-5[8:1],,,,
1,,,,
{16}4/8,,2,6,2,,3/5,4/6,
5-1[8:1]/7-4[8:1],,,,5/7,,,,
{24}2,5,2,
5,2,5,
1,6,1,6
,1,6,{8}7x-3[8:1]/8x-4[8:1],,7b/8b,,
{16}2,5,2,,4/7-3-6-4[16:5],4/7,,,
{24}Cf,,,{16},,
,,,,
{8}2/A7/E8,,5/A3/E4,,Ch[8:2]/E3/E7,,,,
{32}6x,5h[8:0],4b,3b-6[32:225],{1},,,,
{8},,,,,,,,
{8},,,,,,,,
{8},,,,,,,,
{8}1-5b[16:1],,,,,,,
{8},,,,,,,,
{8},,,,,,,,
