&title=东京不太热
&artist=Z新豪
&first=0
&des=Hoshi
&lv_5=13+
&inote_5=(62.5)
{1},
{16}8x<4[8:3]q8[8:3],,,7,8,1,,{32}1,2,3,,{16},,2,1,,,,
{16}3z7[4:3],,,2,3,,,{32}5,6,7,,{16},8,1,,,1,2,
{16},,1,1h[16:1],3V15[4:1]>3[8:1],3h[16:1],5,5,6,7,8,7,B8,B7,B6,B5,
{16},,5,5h[16:1],7q1[8:3],7h[16:1],1,1,2,3,4,5,B4,B3,B2,B1,
{16}8x<6[8:1],,2/7,2,8/1pp1[8:3],1,8,8,7,7,6,5,B5,B6,B7,B8,
{16}1xpp3[16:3],,8/2,8,7/1,7,6,6,7/4,,8<6[16:1]/5>1[8:1],,1/6,,,,
{32},,8,8,1,,2-5[8:1],,{16}3,5-8[8:1],6,8-3[16:3],,,,,,,B7,B8,
{32},,1,1,8,,6,,{16}4qq4[8:1],2,4pp4[8:1],6,4s8[16:3],,,,,,B5,B4,
{32},,7,7,8,,1,,{16}1v2[4:1]>4[8:1]/7v6[4:1]>4[8:1],2/6,3/5,2/6,,,,,,,,,
{16}3<5[8:1]/7<5[8:1],B2/B8,B3/B7,B4/B6,,,,,1h[8:1],,4h[16:4],,5h[16:3],,,,
{16}2>5[8:1]/7,1,1,1,7-4[8:1]/2,8,8,8,7>1[16:1]<7[16:1]/3<5[16:1]>3[16:1],2,2,2,,,,2h[4:1],
{16}6>4[16:1]<6[16:1],7,8,1,,,,7h[4:1],3<5[16:1]>3[16:1],2,1,8,,,,,
{16}7<4[8:1]/2,8,7,6,2v7[8:1]/7,1,2,3,2<8[16:1]>2[16:1]/6>4[16:1]<6[16:1],7,6,5,,,,7h[4:1],
{16}8<6[16:1]<8[16:1],1,2,3,,,,2h[4:1],1>3[16:1]>1[16:1],8,7,6,,,,,
{16}1,1,7,7,2>4[16:1],2,8<6[16:1],8,2/8-4[8:1],1,2/8,1,5/8,,,,
{16}8,8,2,2,7-5[16:1],7,1-3[16:1],1,7/1-5[8:1],8,7/1,8,1/4,,,,
{16}8,7,4,3,2<8[16:1],1,6>4[16:1],5,2-6[8:1]/6,7,2/6,3,2/6,,,,
{16}4/8,4/8,3/7,3/7,2/6,2/6,1/5,1/5,8h[8:1],,2h[4:1],,6h[16:3],,,,
{4}7>2[8:1]/3<6[8:1],,3V14[8:1]*pp4[8:1],,
{8}1pp2[8:1]/8qq7[8:1],B3/B6,,,5p1[8:1]*q1[8:1],B1,,,
{4}7-3[40:3]-1[20:1]*-3[40:3]-5[20:1],,6-3[8:1]*-3[8:1],,
{16}1,2,3,4,5,6,7,8,1>1[8:1],4,5,8,1b,,,,
{32}2>5[8:1]/7,,1,1,1h[16:1],,,,7-4[8:1]/2,,8,8,8h[16:1],,,,7-1[16:1]-7[16:1]/3-5[16:1]-3[16:1],,2,2,2h[16:1],,,,,,,,,,2h[4:1],,
{16}6-4[16:1]-6[16:1],{32}7,8,1,,{16}1,,,,7h[4:1],3-5[16:1]-3[16:1],{32}2,1,8,,{16}8,,,,,
{32}7<4[8:1]/2,,8,7,6,,7,,2v7[8:1]/7,,1,2,3,,2,,2-8[16:1]-2[16:1]/6-4[16:1]-6[16:1],,7,6,5,,6,,,,,,,,7h[4:1],,
{16}8-6[16:1]-8[16:1],{32}1,2,3,,{16}3,,,,2h[4:1],1-3[16:1]-1[16:1],{32}8,7,6,,{16}6,,,,,
{16}2/7,{32}1,8,1,,{16}8,2>4[16:1]/7,{32}8,1,8<6[16:1],,{16}1,2/8-4[8:1],1,2/8,1,5/8,,,,
{16}7/2,{32}8,1,8,,{16}1,7-5[16:1]/2,{32}1,8,1-3[16:1],,{16}8,7/1-5[8:1],8,7/1,8,4/1,,,,
{16}3,{32}5,6,7,,{16}8,7>1[16:1],{32}1,2,3<5[16:1],,{16}4,7-3[8:1]/3,2,7/3,6,7/3,,,,
{32}3,4,3,4,2,5,2,5,1,6,1,6,8,7,8,7,{16}8h[8:1],,4h[32:7],,7h[32:3],,{32}5/8,6/1,7/2,8/3,
{16}1b>5[16:5]p1[16:4],,,,,,,,,,,,B5,B4,
E
