&title=YOUNITHM
&artist=大国奏音
&first=0
&des=Caerulea
&lv_5=14+
&des_5=Caerulea
&inote_5=
(260){4},,,,,,,,{1}4h[1:3],
,,5h[1:1],
3h[1:2],
,6h[1:2],
,2h[1:3],
,,7h[1:1],
1h[1:2],
,8h[4:3],
{4},1/8,7/2,3/6,
{2}4/5<8[2:1],1h[2:1],
3h[2:1],5h[2:1],
{4}7h[2:1],,,8/1-5[4:1],
,7-3[4:1],,2qq5[4:7],
{1}2,
{4},,,,D7,
D6,D5,D4,
,D8,D7,D6,
{2}D5/4x>1[2:1],8h[2:1],
6h[2:1],4h[2:1],
{4}2h[2:1],,,1/8-4[4:1],
,2-6[4:1],,7pp4[4:7],
{1}7,
,8<1[4:3],
Ch[1:1],
{2},E4,
E3,E2,
E1,E8,
E7,E6,
{4}4,4,3/5,5/3,
{8}4,2,4,2,5,3,5,3,
{4}5,5,6/4,4/6,
{16}8,7,6,5,8,7,6,5,8,7,6,5,4,3,2,1,
{4}8-4[8:1],8/2-5[8:1],2/6-1[8:1],6,
2pp5[2:1],5,6,7,
{8}8p6[2:1],,,,,4,3,2,
1h[4:1],8,7,6,{2}5h[4:1],
{4}1-5[8:1],1/7>1[8:1],{8}7,4h[4:1],,,6pp4[2:1],
4,{4}6,{8}2,3h[4:1],{16},,,,8/2h[4:1],
7,6,5,{8}4,{16}1/7h[4:1],2,3,4,{8}5,8,8,
{16}1,2,3,4,1,2,3,4,1,2,3,4,5,6,7,8,
{4}1-5[8:1],1/7-4[8:1],7/3-8[8:1],3,
7qq4[2:1],4,3,2,
{8}1q3[2:1],,,,,5,6,7,
8h[4:1],1,2,3,{4}4h[4:1],{8}6,6,
{16}3,4,3,4,{8}3,{16}6,5,6,5,{8}6,3,3,
{16}1/7h[4:1],2,3,4,{8}5,{16}8/2h[4:1],7,6,5,{8}4,1,1,
6-2[8:1],4,6,3-8[8:1],1,3,{4}7h[4:1],
{16}8,1,2,3,4/6,7,8,1,2/5,4,3,2,1/7,6,5,4,
{4}3/1-5[8:1],{8}1,7,6,4,3,5,
{4}4,{16}6,4,5,3,{8}6,4,{4}7-1[8:1],
{8}1,2,3-1[8:1],4,5,6,7-5[8:1],8,
1,1,2,2h[4:1],{16},,4,3,{8}4,2/5,
{4}3h[16:7],{16}2,1,8,7,2/6,1,8,7,6,5,4,3,
{4}2/7v4[8:1],{8}7,2v7[8:1],,2/5-8-3[8:3],,,4,
3,{4}2-5-8[8:3],{8}1,8,{4}7-3[4:1],
{8},,,,2,{16}5,4,{8}5,3,
6,4,5,4,3,4,2,4,
1,1,3,3,6,1,8,2,
7,1,8,1,2,1,3,1,
4,4,2,2,{16}5,6,7,8,2,3,4,5,
{8}7,{16}E3,B3,{8}B4,1,{16}E7,B6,{8}B5,8b,{16}E3,B3,
{8}B4,2b,{16}E7,B6,{8}B5,{24}1,2,3,4,5,6,7,8,1,2,3,4,
{4}5/7-1[8:1],{8}7,2-5[8:1],,2,{16},,,,E8/B7/B8,
E7,E6,E5,E4,E3,E2,E1,E8,E7,E6,E5,{4}E4,
{8}1/2b,3/8b,,4b/7,,5/6b,,4/3b,
{16}5b/2,1,8,7,6,5,4,3,2/1,8,7,6,5/4,3,2,1,
{8}8/7b,6/1b,,5b/2,,4/3b,,5/6b,
{16}4b/7,8,1,2,3,4,5,6,7/8,1,2,3,4/5,6,7,8,
{8}1/2b,3/8b,,7/2b,,6b/1,,5/8b,
8/7b,6/1b,,2/7b,,3b/8,,4/1b,
{6}1/2b,3,4,5h[2:1],,,8b,
7,6,5/1b,2,3,
4b/5b,6,4,{24}7,5,7,5,{48},,,,,,,{16}6/4,{48},,,,,,{6}5b/4b,
3,5,{24}2,4,2,4,{48},,,,,,,{16}3/5,{48},,,,,,{6}2x/8x,
{24}2/E8,B7,B6,E6,{6}2,7x/1x,{24}7/E2,B2,B3,E4,{6}7,
3x/1x,3,3,6x/8x,6,6,
4/5,3/6,2/7,1/8,{24}2,1,2,1,{6}2,
5/4,6/3,7/2,8/1,{24}7,8,7,8,{6}7,
{12}1,8,2,7,3,6,4,5,3,6,2,7,
{16}1b,8,1b,8,1b,8,1b,8,1b,8,1b,8,1b,8,1b,8,
{2}1b,6>3[1:1],
,E5,
{4}2q7[4:5],,,C,
,B8/B1,,E8/E2,
{1}1x>8[2:7]/8xp1[2:7],
{2},,,,,,3h[4:15],
B4/E5,
B6/E6,B5/E6,
B7/E7,8pp6[1:1],
,,{1}5h[1:1],
3h[1:1],
6h[1:1],
4h[1:1],
C,
{8},,,,,,,,,,,,,,,,,,1,
8,2,7,1,8,
{24}1bw5[2:1],2/8,3/7,4/6,{4},,,{16},{48},{1}8bw4[2:1],
{2}2-5[4:1],7-4[4:1],
{8}1,1,1,1,{16}6,2,6,2,6,2,6,2,
{4}7-3[8:1],{8}7,2-5[8:1],,2,1,3,
{12}7,4,6,3,5,2,{8}4,4,1,1,
6/2,{16}7,8,{8}7,1,6,3,,5,
{16}1b,2,3,4,5/8,4,3,2,1/8b,7,6,5,4/1,5,6,7,
{4}8/1>5[4:1],1/8,7-4[8:1],{8}7/4,3,
{4}2,4/1-5[8:1],1<3[2:1],1,
{2}Cf,{8}2,5,3,6,
{2}4<7[8:1],8>3[8:1],
{4}6/5,4/7,{24}2,3,4,8,7,6,{4}5-3[8:1]*-7[8:1],
5,2>5[4:1],{16}5-1[8:1],6,7,8,,,,,{8}7,
8,1,2,7,8,1,2,
{16}4,3,4,3,5,2,5,2,6,1,6,1,7,8,7,8,
{4}1h[4:1],5h[4:1],{8}3,6,4,7,
{4}5>2[4:1],2<7[4:1],{2}7<4[4:1],
{4}8h[4:1],4h[4:1],{8}6,3,5,2,
{4}4<7[4:1],7>2[4:1],{2}2>5[4:1],
1h[4:1],2h[4:1]/8h[4:1],
3h[4:1]/7h[4:1],4h[4:1]/6h[4:1],
{8}5,7,4,6,3,5,2,4,
{4}1-5[8:1],1,4-8[8:1]*v1[8:1],4,
{12}2,3,4,6,5,6,4,3,2,8,1,8,
1,7,6,5,2,3,4/5,6,7,8/1,2,3,
6,4,6,3,5,3,7,5,7,3,5,3,
{16}6,4,6,4,6,4,6,4,5,5,5,5,5-1[8:1],5,5,5,
{4}5b,8-3[8:1],8,2v5[8:1]/8v5[8:1],
2/8,{8}4,8,2,6,3,7,
{4}1-6[8:1],1,7v4[8:1]/1v4[8:1],7/1,
{8}5,1,7,3,6,2,8,4,
7,5,5,6,4,4,5,3,
8,4,6,1,{16}7,6,{8}5,3,4,
{4}3-7[8:1],3/6-1[8:1],6/2q4[2:1],8xh[2:1],
{8},,,,7/3-1[8:1],6,{4}5/3,
7-4[8:1],7,5v2[8:1]*v8[8:1],5,
{8}3,5,4,6,5,5,7,7,
{4}2-5[8:1],2,4v7[8:1]*v1[8:1],4,
{8}6,4,5,3,4,4,2,2,
5b,3,5,3,6,4,6,4,
6b,6,5/7,5/7,4/8,4/8,3/1,3/1,
2b,2,2,2,1b,1,1,1,
{16}2b,3,4,5,1b,2,3,4,8b,1,2,3,4,5,6,7,
{4}4-7[8:1]/8-3[8:1],4/8,1-6[8:1],1/3-8[8:1],
3/5-1[8:1],5/2-6[8:1],2/8<5[8:1],8,
8-3[8:1]/4-7[8:1],8/4,5-2[8:1],5/7-4[8:1],
7/1-5[8:1],1/6-2[8:1],6/4>1[8:1],{8}8/4,7,
{4}6V84[4:1],5bx/6,3V15[4:1],3/4bx,
7-4[8:1],7/8b,2-5[8:1],2/1b,
{8}7,4,6,5/7,3,6,4,5/3,
2,5,3,4/3,6,3,5,4/5,
3b,{16}7,6,{8}5,3b,{16}8,7,{8}6,3b,{16}1,8,
{8}7,{16}3b,2,1,8,7,6,5,4,3/8,1,2,3,4,5,
{8}6b,{16}2,3,{8}4,6b,{16}1,2,{8}3,6b,{16}8,1,
{8}2,{16}6b,7,8,1,2,3,4,5,6,7,8/1,2,3,4,
5,7,5,7,4,6,4,6,3,5,3,5,2,4,2,4,
{24}1b,2,3,4,5,6,7,8,1,2,3,4,5/8b,7,6,5,4,3,2,1,8,7,6,5,
3b,4,3,4,3,4,2,5,2,5,2,5,1,6,1,6,1,6,8,7,8,7,8,7,
{32}1b,2,3,4,5,6,7,8,1b,2,3,4,5,6,7,8,{2}1bw5[4:1],
{1},,,{32}E7,
B6,{16}B5,,,,,,,{2}B3,
{1}C,
,E6/E4,
{4},,,,A5,
A4,A3,A6,
A5,A4,A7,A6,
A5,A8,A7,A6,
A5/C,{12}E3,B3,B4,{4}E5,C,
A4,A5,A6,A3,
A4,A5,A2,A3,
A4,A1,A2,A3,
,E7,B6,B5,
{1}E5,
E
