&title=炎
&artist=LiSA
&first=0.37
&des=Ragna
&wholebpm=76
&demo_seek=65.7
&demo_len=42.5
&des_5=Ragna/劇場版「鬼滅の刃 無限列車編」主題歌
&lv_5=13
&inote_5=(76){8}
3h[2:1],,,,6h[2:1],,,,
4h[8:3],,,5-8[4:1],,,,,
1,8,2,7,3,4,2,5,
1h[8:3],,,7-2[8:9],,,,,
,,,,,,,,
{16}1/8h[16:3],,2,2,,,,,1h[16:3]/8,,7,7,,,,,
1/8h[16:3],,,3^6[16:3],,,6>2[32:7],,,,,,,,,,
1h[16:3]/8,,7,7h[16:3],,,2,,3^1[8:1]/6^8[8:1],,45,,,,,,
1/8h[16:3],,,3^6[16:3],,,6q3[32:7],,,,,,,,,,
5/4h[16:3],,6,6,,,,,5h[16:3]/4,,3,3,,,,,
5/4h[16:3],,,7^2[16:3],,,2<6[32:7],,,,,,,,,,
5h[16:3]/4,,3,3h[16:3],,,6,,2^4[8:1]/7^5[8:1],,18,,,,,,
5/4h[16:3],,,7p2[16:3],{8},2,1,1,8,8,
2^5[8:1]/7,4,62,,7^4[8:1]/2,5,37,,
2>7[16:3]/7,4,62,8,8,1,1,27,
3/6^3[8:1],27,63,,6/3^6[8:1],27,36,,
6<3[4:1]/3,27,3qq6[32:9]/6,,,,,{16}2,3,
4^2[12:1],,,,8,,7,6,5^7[12:1],,,,1,,2,3,
4^1[8:1],,,,8,,7,6,5^8[8:1],,,,1,,2,3,
{8}4^2[12:1],8^6[12:1],4,8,1^4[8:1],5^8[8:1],1,5qq1[16:5],
,5,,{16}8,7,6b,,,,1>8[16:7]/5,26,37,48,
15,,,,1>8[16:7],2,3,4,15,,,,1>7[16:6],2>8[16:6],3<2[16:7],4<3[16:7],
5<4[16:7]/1,,,,1>6[16:5],,,,5^7[16:2],,,,,,1,8,
2h[8:1]/7h[8:1],,,3^6[12:1]/6,,45,,3,7,,18,,2b>8[16:6]/7b<1[16:6],,4b<4[2:1]/5b>5[2:1],,
,,,,,,,,,,,,5<2[16:5]/1,6<2[16:4]/2,7>3[16:4]/3,8>3[16:3]/4,
1>4[16:3]/5,,,,5<2[16:5],6<2[16:4],7>3[16:4],8>3[16:3],1>4[16:3]/5,,,,,,6,7,
8h[16:4],,1,1h[16:1],,,2b/7b,,4b/5b,,1b^4[12:1]/8b^5[12:1],,4b/5b,,1b/8b,,
,,36,,27,,18,,2h[8:1]/7,,6>2[32:5],53,,,46,,
1,,1,7,,7,4>5[16:5],,,,,,,,,,
,,36,,27,,18,,7h[8:1]/2,,3<7[32:5],46,,,35,,
8,,8,2,,2,{48},5<4[16:5],,,,,{16},,,,,,,,
,,3^1[12:1]/6,,2,,3/6^8[12:1],,5,,3^5[12:1]/6,,4,,3/6>7[16:7],,
7,,63,,8<6[16:2],,4,,,,,,1v3[8:1]/5v7[8:1],26,3^8[8:1]/7^4[8:1],,
,,,,,,1-6[8:1]/5,,6<4[4:1]/2,,1^4[8:1]/5,,4-1[4:1],,,,
8h[8:3],,,,,,1h[8:1],,7h[8:3],,,,,,2h[8:1],,
6-3[4:1],,,,,,,,,,18,,2,6,4,,
6-4[10:1]/3,,,,16,,,,3V51[4:1]/5,,35,,6,,7,,
8,,8h[4:1],,1,2,3V14[4:1],,,,7,,,,5,,
5<2[4:1],,,,,,,,3p6[4:1],,,,,,,,
8h[4:1],,,,1,,{1}2z6[1:2]/7s3[1:2],,,E
