&title=地球最後の告白を
&artist=kemu feat. GUMI
&first=0.068
&des=Kurage
&lv_5=13+
&inote_5=(68)
{48}
,,,,,,,,,,,,,,4qq1[24:13],,,,,,,,,,,,,,,,,,,,,,,,,,,,,,,,,,,,,,,,,,,,,,5pp8[24:13],,,,,,,,,,,,,,,,,,,,,,,,,,,,,,,,,,,,,,,,,,,,4>5[48:31],,,,,,,,,,,,,,,,,,,,,,,,,,E5,,,,,,C,,,,,,E1,,,,,,,,,,,,8w4[24:11],,,,,,,,,,,,,,,,,,,,,,,,,,,,,,,,,,,,,,,,,,,,,,6pp4[48:40],,,,,,,,,3qq5[48:31],,,,,,,,,,,,,,,,,,,,,,,,,,,,,,,
{4},,,{16},,,
(190)
{16}27,36,
{4}
4b>1[8:1]/5b,5,5-8[8:1]/6,6,4-1[8:1]/3,3,5<8[8:1]/4,4,
3b-6[8:1]/6b,7-2[8:1],{16}3x,4x,5x,6x,7x,8x,1x-5[8:1],,
{8},1<6[8:1]*>4[8:1],,1,,E6/B5/B4/E4,,1b/8b-4[8:1],
{8},3,3-1[8:1],,7,7,68,,7<2[4:1],7,3,,1-4[8:1]*-6[8:1],,1x,,
{8}7b-4[8:1],8,7,2-5[8:1],1,2,8-5[8:1],1-4[8:1],8,1,6,2,1b/8b,3b/7b,,,
{8}
6,5,6,,6,4,6h[8:1],,6,2,4-6[8:1],3,,2-4[8:1],,7x,
7x-3[16:3],,1,1v4[4:1]*v6[4:1],,,,,37,,7,,4-2[8:1],,5-8[8:1],,
1x,,1,,1,,1h[8:1],8,2,,2,6-4[8:1],4,,2,6x,
6xh[8:3],,5,5h[8:3],,4,4h[8:3],,3,3h[8:3],,6x,6,5x,7h[8:1],3x,
3,,3,4,3,5,3h[8:1],7x,7xh[4:1],,5-3[8:1],6,,7-5[8:1],,2x,
2x-6[16:3],,8,8V24[4:1]*V64[4:1],,,,,2x/6x,,2,,2,4x,2,{16}6,5,
{8}6,,62,,64,4>1[16:3],6,,7,,78,,81,2,1,3x,
{8}21,,2h[8:1]/6,,2h[8:1]/8,8<5[16:3],2h[8:1],,3,3,4,4,{16}25,,3,7,3,7,2,8,
{8}
1b-5[8:1],,8,7,6/4-2[8:1],,B7/E7,,
8-4[8:1]/1,,1,2,3/5-7[8:1],,B2/E3,,
1>6[4:1]/8,,7,7q4[12:2],,3q8[12:2],,5h[4:1],
,1,1,,3>8[8:1]/7<4[8:1],,7p2[16:3]/3,,
,,1,8,7/2-7[8:1],,6<3[4:1],6x,
,,4,4x-8[8:1]/5x-1[8:1],,,,2x/7x,
1>4[8:1]/8h[4:1],,1x,,1-4[8:1]/7h[4:1],,1x,,
5w1[8:1]/6,,5x,,{16}37,,6,5,6,,3,4,
{8}
2b<7[8:1],,6,6-3[8:1],,2-5[8:1],,8,
8-4[8:1],,B2/E3,,1-4[8:1]*-6[8:1],,1,,
7>2[8:1],,3,3-8[8:1],,6-3[8:1],,1,
1-5[8:1],,B7/E7,,8,3h[4:1],4,5x<8[8:1],
,1-5[8:1],2,3x>8[8:1],,6>3[8:1],,1xh[4:1],
,8,27,2x-5[8:1]/7x-4[8:1],,,,3x/6x,
4-1[8:1]/5h[4:1],,4x,,4h[4:1]/5-8[8:1],,5x,,
{16}36,,2,1,2,,78,,{4}1>4[8:1]/5<8[8:1],1b/5b,
{8}
6x/5x,65,6V47[8:3]/5,6/5h[8:5],,,,,
8x-4[8:1],8,3x>5[8:3],3,5b,,,,
3x/4x,34,3V52[8:3]/4,3/4h[8:5],,,,,
1x-5[8:1],1,6x<4[8:3],6,Cf,,,,
{1}1xs5[4:4],{4},,7>2[8:1],1<6[8:1],
{8}3,3,54,54,{16}6,5,6,5,7,,4b/8b,,
{8},5b/1b,3b>6[8:3]/7b,,{4},,
{8}
4-8[8:1]/5,,42,1q6[16:3],,7>4[4:1],8,1h[8:3],
,,5-7[8:1],5qq4[4:1],,,8w4[8:1],,
8,,2v5[8:1],6v1[8:1],2,6<3[4:1],,4h[8:3],
,,5,5,3-8[8:1]/6-1[8:1],,36,,
5-1[8:1]/4,,57,8p3[16:3],,2<5[4:1],1,8h[8:3],
,,4-2[8:1],4pp5[4:1],,,1,1,
2b/4b-8[8:1],4,2-5[8:1],2,6-2[8:1],6,1-4[8:1]*-6[8:1],,
1b,,3b/7b,1b/5b,{16}2,4,3,5,4,6,5x<4[12:2],5x,
,,{48}Cf,E6,E7,E8,E1,E2,E3,E4,,,,,{8},{16}1x,8x,1x,8x,{32}1,2,3,4,5,6,7,8,
{8}
1b-5[8:1],,12,3>6[4:1],4,4,5-8[8:1],5,
1-4[8:1],1,7,7,65,{16}4,5,3,,{8}1bv2[8:1]/6bv5[8:1],
,1b*>4[8:1]*<6[8:1]/6b,,1bw5[8:1],,1b`Cf,,
3bqq4[8:5]/7b,,5,5,,B7/B6/E7,,8x,,
3<6[4:1],,6<1[4:1],,1>3[4:1],,4,,
6bpp5[4:2],,4,,B2/B3/E3,,1x,,
2b/8b,,73,6,4-8[8:1]/5-1[8:1],,4/5`Cf,,
2b/7b,1b>4[8:1]/8b<5[8:1],,1b/8b,,3bqq5[4:2]/6bpp4[4:2],,3b/6b,
{1},
{8}
3b>8[8:1],3,4,5,6<1[8:1],6,5,4,3<6[8:1],3,2,1,8-3[8:1],8,5-2[8:1],5,
7<4[8:1],7,3,2,1-5[8:1],1,5,{16}6,7,{4}8b-4[8:1]/4b-2[8:1],48,5b-1[8:1]/7b-5[8:1],75,
{8}
2b-6[8:1],2,1,8,7-3[8:1],7,8,1,2<7[8:1],2,6,6,4-1[8:1]/5-8[8:1],,45,,
4h[4:1]/2b,2,2,6/5h[4:1],6,6,45,45,3b/6b,2,45,7,3b/6b,5b/4b,1b/8b<8[4:16],3b/6b,
