&title=混沌を越えし我らが神聖なる調律主を讃えよ
&artist=穴山大辅
&first=0.05
&des=Alan vs ねこぐるまスタイル vs 椛
&lv_5=16
&inote_5=(240)
{4},,,,,,,Chf[4:5],,,,,
{8}B1/B2/B3/B4/B5/B6/B7/B8/E1/E2/E3/E4/E5/E6/E7/E8,,,,,,,,,,,,,,,,,,,,,,,,1/8,,2,,3,,4/5,5,,3/6,,4,4h[4:3]/8,,7<4[16:3],,7,,
{16}3,2,1,8,
{12}3/7,2/6,1/5,4/8,,,
{8}8/1,,7,,6,,4/5,4,,6/3,,5,5h[4:3]/1,,2>5[16:3],,2,,
{12}6,7,8,1/7,2/6,3/5,4,,,
{8}2>4[8:1],4,2,8<6[8:1],6,8,1>3[8:1],3,1,7<5[8:1],5,7,
{12}1b,2,3,4/8,5,6,3/7,8,1,2/6b,5,4,3/7,2,1,4/8,3/7,2/6,
{1}1b>6v3-5b[2:5]/5b<2v7-1[2:5],,,Ch[1:3],,,
{16},,,,4,5,4,5,4,5,4,5,
{8}3/6,3-7[8:1]/6,,3/4>8[4:1],,4,
{12}6bx,5,4,7x,6,5,8x,7,6,
{8}1/5,1<6[8:1]/5>2[8:1],,1-5[8:1]/5,,1/5,
{12}6bx,7,8,2,1,2,7,8,7,
{8}6/3,6-2[8:1]/3,,6/5<1[4:1],,5,
{12}3bx,4,5,2x,3,4,1x,2,3,
{8}4-7[8:1]/8-3[8:1],4/8,4-1[8:1]/8-5[8:1],,4/8,,
{16}8,4,8,4,1,5,1,5,2,6,2,6,
{8}4/5-1[8:1],4/5,4-8[8:1]/5,3,4/5,6,
{12}1b,2,3,8,1,2,7,8,1,
{8}2-4[8:1]/6,2/6,2-8[8:1]/6,7,2/6,5,
{12}1b,3,2,8,6,7,3,5,4,
{8}5/4-8[8:1],5/4,5-1[8:1]/4,6,5/4,3,
{12}8b,7,6,1,8,7,2,1,8,
{8}7-5[8:1]/3,7/3,7-1[8:1]/3,2,7/3,4,
{8}4-8[8:1]/5-1[8:1],,4/5,,2/7,,
{16}3,6,3,6,4,5,4,5,4,5,4,5,
{16}1bV35[4:1]/6,,,,1/5v2[6:1],,5,,6,,7,,3/8p4[4:1],,3,,4v6[6:1]/8,,4,3,2,,2,,
{16}5/8V25[4:1],,,,5v2[6:1]/8,,5,,6,,6,,1>4[8:1]/7<4[8:1],,,,1/7,,,,8,,8,8,
{16}1/7<3[4:1],,,,3-6[6:1]/7,,3,,2,,2,,1q6[4:1]/7,,7,,6<2[6:1],,6,5,4-8[8:1],,4,,
{16}3-6[8:1],,3,,1<6[8:1]/3,,1,,2,,2,,5/Cf,4,3,2,1,2/8,3/7,4/6,5,,,,
{16}8bV64[4:1]/3,,,,4v7[6:1]/8,,4,,3,,2,,6/1q5[4:1],,6,,5v3[6:1]/1,,5,6,7,,7,,
{16}4/1V74[4:1],,,,4v7[6:1]/1,,4,,3,,3,,8<5[8:1]/2>5[8:1],,,,8/2,,,,1,,1,1,
{16}2V46[4:1]/8,,,,6V82[4:1],,6,,2-6b[6:1],,2,,A2,,,,,,4/8,,4/8,,,,
{8}1/5,1>4[8:1]/5<8[8:1],,1-5[8:1]/5,,1/5,4w8[8:1],,4,,2/6,,
{16}1h[8:1]/8h[4:1],,,,3<5<7[4:1],,5<7>1[4:1],,7>1>3[4:1],,1>7[8:3],,3/A7f,4,5,6,7,8,1,2,3,,,,
{16}8h[8:1]/1h[4:1],,,,6>4>2[4:1],,4>2<8[4:1],,2<8<6[4:1],,8<2[8:3],,6/A2f,5,4,3,2,1,8,7,6,,,,
{16}1bv4p7[8:3]/5b,2x/6x,3x/7x,8x/4xp7b[16:3],1/5,,,,,,,,
{16}8b,,,,1,2,3,4,5,6,7,8,
{24}5,1,5,,,,
{16}4/8,,4/8,,3/7,,3/7,,2/6,1,8,7,2/6,1/5,4/8,3/7,2/6,1/5,4/8,3/7,
{16}2/6<3[16:3],,6,,4-1[8:1],,4,,5-8[8:1],,5,,2w6[8:1],,,,A2,,,,4/8,,,,
{16}7/3>6[16:3],,3,,5-8[8:1],,5,,4-1[8:1],,4,,7w3[8:1],,,,A7,,,,8,1/7,2/6,3/5,
{8}4-2[8:1],4-6[8:1],4x-8[8:1],4x,A4f,,5-7[8:1],5-3[8:1],5x-1[8:1],5x,A5f,,
{24}2b,4,2,
{16}4,,2,4,3,5,4,6,5,,
{24}7b,5,7,
{16}5,,7,5,6,4,5,3,4,,
{24}1b,2,3,8b,7,6,2b,3,4,1b,2,3,7b,6,5,8b,7,6,1b,2,3,8b,7,6,2b,3,4,1b,2,3,7b,6,5,8b,7,6,
{8}1-4[8:1]/5,5,1/5,5,3-7[8:1]/5,5,3/6,6,8-5[8:1]/6,6,8/6,6,4/7-3[8:1],4,4/7,4,4/2-5[8:1],4,3/2,3,3/6-2[8:1],3,3/6,3,
{8}1-4[8:1]/8,8,1/8,8,3-6[8:1]/8,8,3/7,7,5-8[8:1]/7,7,5/7,7,1/6-2[8:1],1,1/6,1,1/3,1,
{24}2,4,2,4,2,,7,5,7,5,7,,4/5,,,,,,
{8}8-5[8:1]/4,4,8/4,4,6-2[8:1]/4,4,6/3,3,1-4[8:1]/3,3,1/3,3,5/2-6[8:1],5,5/2,5,5/7-4[8:1],5,6/7,6,6/3-7[8:1],6,6/3,6,
(200)
{8}5/8b,1b/5,2b/5,1b/3,3/8b,3/7b,
(180)
{8}2b/6,3b/6,4b/6,5/6b,4/5b,3/4b,
(160)
{16}2b,8,1b,7,8b,6,5b,7,4b,6,3b,5,
(120)
{48}1bh[16:1],,6,5,4,,1bh[16:1],,3,4,5,,1bh[16:1],,7,6,5,,8bh[16:1],,3,4,5,,8bh[16:1],,6,5,4,,8bh[16:1],,2,3,4,,
{4}1x-5<6-4-7-3-8-2[4:7]/5x-1>2-8-3-7-4-6b[4:7],,,,,,,,Cf,,,
{16}4>5b[4:7],,,,,,,,,,,,1<5[1:1],,,,,,7,,,,,,Ch[2:1],,,,,,,,,,,,E3,E7,E4,E6,E5,,
{64}E1,E2,E3,E4,E5,E6,E7,E8,B8,B1,B2,B3,B4,B5,B6,B7,C,,,,,,,,
{8}5x<4b[4:5],,,,,,1>4[2:1],,,3,,,
{16}A1,E2,E3,E4,A4,,A8,E8,E7,E6,A5,,
(240)
{16}A2,E3,E4,A4,A8,E8,E7,A6,A1,B1,C,B5,A7,E7,E6,A5,A1,E2,E3,A8,A3,B8,C,B4,
{24}1bx/5bx,,,1x-6[8:1]/5x-2[8:1],,,,,,1/5,,,,,,3/7,4/8,1/5,
{8}2>5[8:1]*-5[8:1]/6,,2b<7[8:1]*-7[8:1],,2bw6[6:1],,A2f,,,
{128}B3/B7,,,,,,,,,,,,,,,,B2,B6,,,,,,,,,,,,,,,B1,B5,,,,,,,,,,,,,,,E5,E1,,,,,,,,,,,,,,,,,,,,,,,,,,,,,,,
{8},,2/6,3/7,
{24}8bx/4bx,,,8x-3[8:1]/4x-7[8:1],,,,,,8/4,,,,,,6/2,5/1,8/4,
{8}7<4[8:1]*-4[8:1]/3,,7b>2[8:1]*-2[8:1],,7b,,Ch[4:3],,,,,,
{32}B1,B2,B3,B4,B5,B6,B7,B8,E1,E2,E3,E4,E5,E6,E7,E8,A8,A1,A2,A3,A4,A5,A6,A7,
{24}1bx/5bx,,,1x-6[8:1]/5x-2[8:1],,,,,,1/5,,,,,,3/7,4/8,1/5,
{8}2>5[8:1]*-4<5b[8:1]/6,,2b<7[8:1]*-8<7b[8:1],,2b,,
{24}8bx/4bx,,,8x-3[8:1]/4x-7[8:1],,,,,,8/4,,,,,,6/2,5/1,8/4,
{8}7<4[8:1]*-5>4b[8:1]/3,,7b>2[8:1]*-1>2b[8:1],,7b,,
{8}5-1-7-3[8:3],5,4,3,3,,4-8-2-6[8:3],4,5,6,6,,
{16}4h[2:1]/5h[2:1],,,,,,,,,,,,5,4,5,4,5,4,5,4,5,4,5,4,
{16}4x/5x,,4-8[8:1]/5-1[8:1],,,,4/5,,,,2/7,,3,4,3,4,6,5,6,5,C,,,,
{16}5x/4x,,5s1[8:1]/4z8[8:1],,,,5/4,,,,7/2,,7,5,7,5,2,4,2,4,C,,,,
{16}8bV64[4:1]/3,,8,,8/4v7[6:1],,4,,3,,2,,6/1q5[4:1],,1,,5v3[6:1]/1,,5,6,7,,7,,
{16}4/1V74[4:1],,1,,4v7[6:1]/1,,4,,3,,3,,8<5[8:1]/2>5[8:1],,8/2,,8/2,,,,1,,1,1,
{16}8/2>6[4:1],,2,,6-3[6:1]/2,,6,,7,,7,,8p3[4:1]/2,,2,,3>7[6:1],,3,4,5-1[8:1],,5,,
{16}6-3[8:1],,6,,8-4[8:1]/6,,8,,7,,7,,3,7,3,7,4,6,4,6,5,5,5,5,
{16}1bV35[4:1]/6,,1,,5v2[6:1]/1,,5,,6,,7,,3/8p4[4:1],,8,,4v6[6:1]/8,,4,3,2,,2,,
{16}5/8V25[4:1],,8,,5v2[6:1]/8,,5,,6,,6,,1>4[8:1]/7<4[8:1],,1/7,,1/7,,,,8,,8,8,
{16}7V53[4:1]/1,,,,3V17[4:1],,3,,7-3b[6:1],,7,,A7,,,,,,5/1,,5/1,,,,
{8}8/4,8<5[8:1]/4>1[8:1],,8-4[8:1]/4,,8/4,5w1[8:1],,5,,7/3,,
{16}7b-4-6b[4:1],,4-6-1[4:1],,7,,1-5b[8:1],,2,,3,,
{24}4,3,2,1,8,7,3,2,1,8,7,6,1/5,,,,,,
{16}2b-5-3b[4:1],,5-3-8[4:1],,2,,8-4b[8:1],,7,,6,,
{24}5,6,7,8,1,2,6,7,8,1,2,3,8-6-4v7[8:3]/4-1[8:1],,,,,,
{8}4v7[8:1]/8,,1x-6[8:1],,1-3-5v2[8:3]/5-8[8:1],,5v2[8:1]/1,,8x,7,6,5,
{16}4,6,4,6,3,7,3,7,2,8,2,8,
{32}1,2,3,4,5,6,7,8,1,2,3,4,5,6,7,8,1,2,3,4,5,6,7,8,
{16}1b,2,3,4,2x,3,4,5,3x,4,5,6,8x,5,7,6,8x,5,7,6,8x,5,7,6,
{16}8b,7,6,5,7x,6,5,4,6x,5,4,3,1x,4,2,3,1x,4,2,3,1x,4,2,3,
{16}1x,8,7,6,2x,1,8,7,3x,2,1,8,4x,3,2,1,5x,4,3,2,6x,,,,
{16}2/8,7,2/6,3,4/7,6,1/5,2,3/8,7,2/6,3,4/7,6,1/5,2,3/8,7,2/6,3,4xh[8:1]/5xh[8:1],,,,
{24}4,5,4,5,4,5,3,6,3,6,3,6,2,7,2,7,2,7,1,8,1,8,1,8,2,7,2,7,2,7,3,6,3,6,3,6,
{8}4-8[8:1],5-7[8:1],4,5,1-3[8:1],8-4[8:1],1,8,2-6[8:1],3-5[8:1],2,3,7-1[8:1],6-2[8:1],7,6,8-6[8:1],1-5[8:1],8,1,7-3[8:1],6-4[8:1],7,6,2-8[8:1],3-7[8:1],2,3,1-3[8:1],8-4[8:1],1,8,2-6[8:1],3-5[8:1],2,3,7-1[8:1],6-2[8:1],7,6,8,1,
{24}6,5,6,5,6,,3,4,3,4,3,,1/8,,,,,,
{8}B7/E8,B6/E7,4,B5/E6,4,C,
{32}2bx,E3,E4,A4,1bx,B1,C,B5,8bx,B8,C,B4,7bx,E7,E6,A5,8bx,B8,C,B4,1bx,B1,C,B5,
{8}B2/E2,B3/E3,5,B4/E4,5,C,
{32}7bx,E7,E6,A5,8bx,B8,C,B4,1bx,B1,C,B5,2bx,E3,E4,A4,1bx,B1,C,B5,8bx,B8,C,B4,
{8}7,7,6/7,5/6,4/5,3/4,2/3,1/2,1/8,2/7,3/6,4/5,
{32}1b>4[8:1],B1,C,B5,8b<5[8:1],B8,C,B4,1b,D2,D3,D4,8b,D8,D7,D6,1b,2x,3x,4x,8b,7x,6x,5x,2b,3,4,5,6,7,8,1,7b,6,5,4,3,2,1,8,2b/7b,3/6,4/5,,,,,,
{8}1/2,1-4[8:1]/2-4[8:1],,1-7[8:1]/2-7[8:1],,1/2,A7f,6,5-1[8:1],4,3,2,
{8}8/7,8-5[8:1]/7-5[8:1],,8-2[8:1]/7-2[8:1],,8/7,A2f,3,
{32}4,,,,5,,,,4,5,4,5,4,,,,
{8}3/6,1b>3[8:1]/8b<6[8:1],,1bw5b[8:1]/8bw4b[8:1],,
{64}1b/8b,B1/B8,Cf,B3/B4/B5/B6,,,,,
