&title=千年食谱颂
&artist=H.K.君
&first=1.88
&des=老戏骨 a.k.a. 熱乳P
&lv_5=13+
&inote_5=(67.5)
{8}1,2,3<6[8:1]/C,,8,7,6q3[8:1]/C,,1p8[8:3],2,3,4,5,6,7q2[4:1]/C,,27,3,4v1[8:1],,4/5v2[8:1],,5/6v3[8:1],{32},,6x,6x,{8}6x/5qq7[4:1],5,5,,8h[4:1],,{16}A1,A2,A3,A4,{8}8v3[8:1]*v5[8:1],17,8>1<8v2[4:1]*<7>8v6[4:1],,8,,,,1>2v5[8:1]*<8v5[8:1],5>4-8[8:1]*<6-2[8:1],1,,,B7,B3,,6<3[8:1]/5q4[8:1],34,5/6-4-7-3-8-2[8:5],,6,8,2,4,4w8[4:3]b,4,4,,,,,,,,,,,
(135)
{32},,,,1x,2x,3x,4x,{8}5x/7bx-3[8:1],,7,,{16}2h[16:3],,,4h[16:3],,,3,,
6,5,6,3,4,3,6,5,7,3,4,2,6,5,7,3,{8}1bhx[4:2],B1,C,B5,2-6[8:1],7h[8:1],2,7,
{16}3,4,3,6,5,6,3,4,2,6,5,7,3,4,2,6,{8}8bx-4[4:1],,,,,,B7/B6,B2/B3,,E1,E5,,24,,75,,
3b-8>1-6<7[4:2]b/7b-4<5-2>3[4:2]b,,,,,,,,
{8}2qq3[4:2]b/8,,6,,5,,4,4<6-3<5[8:5],,C/B4/B5/B3/B6/E6/E4,,,,,8,,7qq4[4:2]b,,7/E6/B6/B5,,,,3,3>6[4:1],,6<3[4:1],,4,,{16}7,8,1,2,3,4,52,,3,4,3,,3,,35,,3,,{8}31,84,7h[4:1]/5,,{8}1,6>3[8:1],3-6[8:1],6,2q7[4:1]b,1,2,,6q3[4:1]b,,6,,2-4[8:1],,1-5[8:1],,8-4[8:1],,7-5[8:1],,3q7-2q6[4:2]b,,3,,5,,7,,3p7[8:1]/7p3[8:1],,3-6[8:1]/7-4[8:1],,3q2[4:1]/7p8[4:1],,37,,,1,1q5[8:1]*p5[8:1],,1q2[4:1],,1/C,,8-5[8:1],7q5[8:2]b,8,7,,1,,{16}2,1,8,7,6,5,7/4,,6,5,6,,6,,68,,6,,64,,73,,8h[4:1]/2-5[8:1],,,,{8}2,
8-4[8:1],4-8[8:1],8,2-7[8:1]*-5[8:1],3,2-8-6-4-2[4:2]b,,,,,,C,,
27,5/4h[4:1],,{32}5,6,7,8,1,2,3,4,5,6,7,8,{8}1bxv6[8:1]/2bx,,1/2v5[8:1],3,2/8-3[8:1],7,8<3[4:1],,8,1-6[8:1],,,,5,4,3,2>5[8:1]*-5[8:1],1,2-6[8:1]b,,2<7[4:1]/7-3[8:1],,2/7-5-2[4:1],,,,1b,8b-5v4[4:1]*-3v4[4:1],,8,,,,37,2/8s4[4:1],,4s8[4:1],,8>4[4:1],,4<8[4:1],,8q4[4:1],,4q8[4:1],,8>4[4:1],,4-8[8:1],,Cf/2-5[8:1],,2bx,8bx-4[8:1],7bx-5[8:1],8bx,7bxv2[8:1],,8-5[8:1]/7,,1-4[8:1]/8,1,1/7<4[8:1],7,8v3[8:1]/7,8,8/7v4[8:1],6,7/1-6[8:1],2,1>6[4:1],,1,8-3[8:1],,,,4,5,6,7,8,{24}8x-4[8:1],7x,6x,5xh[8:3],,,{8}8V24[4:1],,8,,1v6[8:1],1v4[8:1],1bx,1bx-3-5[4:1]*-7-5[4:1],,1,,,
,2-4[8:1],1,5h[4:1]/2,,7-5[8:1],8,4h[4:1]/7,,2-6[8:1],1,8h[4:1]/2,,7-3[8:1],8,1h[4:1]/7,,2,2,2h[8:4],,4,4,4h[8:3],,5,5-1[4:1],,1>4[4:1],,4-8[4:1],,8-2-6>5-3[8:6]*-6-2>3-5[8:6],,,,,,,,,,3v1[4:2]/7v5[4:2],,,,,,,,{32}Ch[4:2]/B2/B3/B6/B7,,,,,,,,,,,,,,,,
{8},2x,8xp3[8:1],3x>4[8:3],Cf,,4>3-7[4:1],,1-5[8:1],,1,7qq4[4:1],5,7,,8x>6[8:3],,4<8[4:1],6-2[8:1]*<8-4[8:3],6,,,2V46[4:1]b*V86[4:1]b,,2,,E7f,E3f,8-5[8:1]/4-1[8:1],84,84,,26,37,84,,87,65,43,21,3h[4:1]/7,,1z5[8:2],7h[8:5],1,,,{16}4,3,{8}2h[4:1],,8w4[8:1]b,,B6/B5/B4/B8/B2/A2/A3/A4/A6/A7/A8/D3f/D4/D7/D8,,,,,,,,
81,27,36,4h[4:1]/5,
{8},7,1q6[8:1],6<5[8:3],C,,5<6p2[4:1],,8-4[8:1],,8,2pp5[4:1],4,2,,1x<3[8:3],,5>3-1[4:1],3-7[8:1]*-1-5[8:3],3,,,7<6v4>3[4:1]b,,7,,B2f,B8f,3-8[8:1]/7-4[8:1],37,37,,73,62,15,,
{4}6/5>1[4:1],8,4<8[4:1],1,5>1[4:1],{16}8,,6x,5x,4x<8[4:1],,,,{4}1,5pp5[4:1]*-1[8:1],5qq5[4:1],,{8}1h[4:1],,
{12}8,7,6,2,3,4,5/Ch[4:1],,,
{8},
3,1q7[4:1]/2p4[4:1],83,12,,,,,
6,8p3[4:1]b/7q4[4:1]b,16,87,,,E6,E2,
7,5s1[4:1]/6z2[4:1],47,56,,,,,
5,4-7[4:1]*p7b[4:1]/3,52,4,,,E6,E2,
5,2-7[8:1],7>2[8:1],2>5[8:1],5,7-3[8:1]b,,75,5,6-3[8:1],3-6[8:1],6,2-6[8:1],8-4[8:1],2b,8b,1,8,7,61,52,43,,6<7v6s2[4:3],2,6hb[4:3],,,,,,,,
{16}
54,,36,,7,8,,2,1,2,5,3,6,2,
{32}8x,7x,6x,5x,{8}4x/2b-6[8:1],,2,,{16}7h[16:3],,,5h[16:3],,,6,,
2,4,3,7,5,6,3,4,2,6,5,7,3,4,2,6,{8}8bh[4:2],B8,C,B4,7-3[8:1],2h[8:1],7,2,
{16}7,5,6,2,4,3,8,6,7,1,3,2,6,5,7,3,{8}1b-5[4:1],,,,,,B2/B3,B7/B6,,E1,E5,,75,,24,,
3b-8>1-6<7[4:2]b/7b-4<5-2>3[4:2]b,,,,,,,,A5/D5/E7/E1/E3/E4/D4/B8/B1/B7/B5/B2/B4/C,
E
