&title=Grandspell
&artist=Hylen
&first=0
&des=Ardy
&clock_count=4
&lv_5=13+
&inote_5=(84)
{1},
{4},,,Ch[4:1],
{16}5<4[8:11],,,2,,,3,,,4,,,5,,,6,
,,7,,,8,,,1>7[8:9],,,6,,,7,,
,8,,,1,,,2,,,3,,,4>7[8:3],,,
1,,8,,7,,6,,{32}5>1[4:1],,,4,,,3,,8,,,7,,,6,,
{16}5h[8:1],,B4/E4,,2h[16:1],B4/E5,,6h[16:1],B7/E7,,3h[16:1],B1/E2,8h[16:3],E6,E5,E4,
2h[8:1],,B8/E8,,6h[16:1],B5/E5,,3h[16:1],B3/E3,,7h[16:1],B5/E6,4h[16:3],E8,E7,E6,
7h[8:1],,B1/E2,,3h[16:1],B5/E6,,8h[16:1],B6/E7,,2h[16:1],B4/E4,5h[16:3],E7,C,E3,
4h[8:1],,B2/E3,,6h[16:1],B7/E7,,1h[16:1],B3/E3,,8h[16:1],B7/E7,4h[16:3],E5,C,E1,
{8}2,3,4V28[8:3],5,{48}8/A4,D4,,,,,{8}7,6V42[8:3],5,
{48}2/A6,D6,,,,,{8}1,8V64[4:1],7,{48}4/A8,D8,,,,,{24}3,,,2h[24:1],,3h[24:1]/5h[24:1],,4h[24:1]/6h[24:1],,
{16}4/5,3,2/5,6,3/7,2,1/6,7,1/8,2,3/7,6,2/5,3,4/6,5,
3/4,2/5,5/6,4/7,1/8,2/7,4/5,3/6,Ch[4:1]/8<6[16:1],8<5[16:1]*<5[16:1],1v3[16:1],1v4[16:1],,,,,
{16}2x<6[8:1],,3/5,,6,5,4h[8:1],,8q1[8:1],,2,,8/2,,,,
6>2[8:1],,1/8,,2,1,8h[8:1],,4qq1[16:3],,7,,4/7,6h,6h,,
5hx[16:1]/2hx[16:1],,3h[8:1],4,6h[8:1],5,2h[8:1],4,7h[8:1],5,3h[8:1],1,6h[8:1],8,{48}A1,D2,A2,D3,A3,D4,
{16}4xh[16:1]/7hx[16:1],,6h[8:1],5,3h[8:1],4,7h[8:1],5,2h[8:1],4,6h[8:1],8,3h[8:1],1b,1b,,
8pp3[6:1]/2,,{48}A8,D8,A7,D7,A6,D6,{16}8`A5,,6,,8pp4[6:1]/3x,,7,,8/6,,5,,
8pp5[6:1]/3,,7,,6/8,,4,,8p6[6:1]/6,,1/3,,8,2b,2b,,
5hx[16:1]/7hx[16:1],,6h[8:1],A5/B5,3h[8:1],A4/B4,7h[8:1],E6/D6,2h[8:1],E4/D4,6h[8:1],A8/B8,3h[8:1],A1/B1,A1/B1,,
{16}4xh[16:1]/2hx[16:1],,3h[8:1],A4/B4,6h[8:1],A5/B5,2h[8:1],E4/D4,7h[8:1],E6/D6,3h[16:1],A1/B1,{32}3,8,4,,5/7,,,,
{16}1q5[12:1]/8,,1/7h[8:1],2,1,,Ch[16:1],,4/5q1[16:1],,5/3h[8:1],6,{48}5,,,,,,D1,A8,D8,A7,D7,,
{32}3,7x,5,7x,3,6,5,6,3,5,4,5,2,4,3,4,1h[4:1],,,,B2/B3/E3,,C,,E7/B7/B6,,,,{64}E2,E8,B7,B2,B3,B6,E6,E4,
{32}4x/5x,,,,5,,6,,2x,2x,2x,2x,2x,,6x,6x,6x,6x,6x,,1x-5[16:1],1x,1x,1x,1x,,2/8,,1b,,,,
2/7,,,,4,,3,,6,5,6,5,6,,2,3,2,3,2,,7z3[32:3],8s4[16:1],7,8,7,,1/6,,78,,,,
2x/5x,,,,4/7,,,,4h[8:1],,{48}8,1,2h[48:13],{32},,6,,5,,,,4h[8:1],,{48}1,8,7,{32},,4,,4/7,,,,
3/4,,,,2/4,,,,5h[8:1],,{48}1,8,7h[48:13],{32},,3,,4,,,,5h[8:1],,{48}8,1,2,{32},,6b,,6b,,,,
{32}2/7,,,,8h,,8h,,{64}1x,,,2,,,3,,8x,,,7,,,6,,2,,,3,,,4,,7x,,,6,,,5,,{32}1x,,2h,,2h,,,,
3-7[2:1]/5,,,,4h,,4h,,{40}5x,,,6,,,7,,,8,,,1,,,2x,,,3,,{32}4x,,8b,,8b,,,,
6/5,,,,6/7,,,,8h[8:1],,{48}4,5,6h[48:13],{32},,2,,1,,,,7h[8:1],,{48}4,3,2,{32},,8,,8/2,,,,
2/3,,,,2/3,,,,1h[8:1],,{48}5,4,3h[48:13],{32},,7,,8,,,,2h[48:5],,{48}5,6,7,{32}1-5[16:1],8x,2,7,1,8,2,7,
(168)
{1}1b-4-7-2-5-8-3-6-1>1b[4:31],,,{8},,,,,E5,B6,A7,{1},{4},,,C,,,,{8}B8,B1,E2,,,,,,B6,E5,
{4}3x-6[4:4],,4,,8x-3[4:4],,1,,5x-8[16:15],,6,,2-5[4:4],4x,3,,
7x-2[4:4],,1,,4x-7[4:4],,6,,1x-4[16:15],,3,,6-1[4:3],7x,8,,
2,3,4,5V71[4:3],
{24}A5/8,D6,,,,,{4}1,2,3V57[4:3],
{24}A3/6,D4,,,,,{4}7,8,1V35[2:1],
{24}5/A1,D2,,,,,{4}6,{6}7h[12:1],6h[12:1]/4h[12:1],5h[12:1]/3h[12:1],
{8}5/4,6,7/4,3,6/2,7,8/3,2,
8/1,7,6/2,3,7/4,6,5/3,4,
6/5,7/4,4/3,5/2,{16}1,7,2,6,3,5,2,6,
8x/2x,,8x/1x,,7x/1x>3[12:1],,8x/1x>4[8:1]*>4[8:1],,8xv6b[8:1],,8xv3b[8:1],,,,,,
{8}5b,,5h[8:1],,5h[8:1],,{32}B5,B4,B3,B2,B1,B8,B7,B6,
{4}B5`2bx-5b[8:1],1b/2b-7b[8:1],2b-6b[8:1]/3b,2b/8b-4b[8:1],
1b/8b-5b[8:1],8b-3b[8:1]/6b,8b-6b[8:1]/2b-4b[8:1],2b/8b,
{16}7bx/5bx,7bx/5bx,,2b/4b,2b/4b,,1b-5b[8:1]/8b-4b[8:1],,2b/7b,,1b/8b,,,,,,
{32}1bxh[8:1]/E8,B7,B6,E6,,,,,1bxh[8:1]/E1,B1,B2,E3,,,,,1bxh[8:1]/E8,B7,B6,E6,,,,,1bxh[8:1]/E1,B1,B2,E3,,,,,
8bxh[8:1]/E2,B2,B3,E4,,,,,8bxh[8:1]/E1,B8,B7,E7,,,,,8bxh[8:1]/E2,B2,B3,E4,,,,,8bxh[8:1]/E1,B8,B7,E7,,,,,
3bxh[8:1]/E8,B8,B1,E2,,,,,2bxh[8:1]/E6,B5,B4,E4,,,,,6bxh[8:1]/E2,B1,B8,E8,,,,,7bxh[8:1]/E4,B4,B5,E6,,,,,
4bxh[8:1]/5x,E6,B6,B7,E8,,,,5bxh[8:1]/4xw8b[8:1],E4,B3,B2,E2,,,,{8},,3,6,
{8}1-5[8:1],,1/8-6[8:1],,8/4,,4-8[8:1]/5,3,
4/2-6[8:1],,2/7-1[8:1],,4/7-5[8:1],,2/7,,
4-2[8:1],,4/5-1[8:1],,5/6V85[4:1],,6/2-8[8:1],3,
2-4[8:1],,2/6,,1-6[8:1]/8-3[8:1],3/6,1/8,,
1bV35[6:1]/7b,,6V42[6:1],7,1V35[6:1],8,6V42[6:1],7,
1V35[6:1],8,6qq2[8:3],7,1,8,7,,
8bV64[6:1]/1b,,3V57[6:1],2,8V64[6:1],1,3V57[6:1],2,
8V64[6:1],1,3pp6[8:3],2,1,2,3x,,
5xh[8:1]/6x,7,4xbh[4:1]/3bx,2,8x<1[4:1]*<1[4:1]`E8f`D8,,D1/E1,,
{3}8>7[8:19],5,6,
7,8,1,
{4}2x,3x,{3}4x>6[8:23],1,
8,7,6,
5,4,3,
2,{4}1x,8x,
{12}7,7,6,6,5,5,4,4,3,3<8[4:7],2,2,
{4}1,1,1,1,1,1,1,1p3<6[4:7],
1,1,1,1,2,3,4,5>6[4:7],
8,8,7,7,6,6,5,5<3q6[1:2],5,5,5,5,
5,5,5,5,
