&title=神のまにまに
&artist=ワンダーランズ×ショウタイム
&first=0
&des=fullower
&lv_5=13
&inote_5=(135)
{8},,,,,{16},
{24}
E6,,,,,,B1/B2,,,,,,E6,B5,,,,,B1/B2,,,,,,
E6,B5,,,,,B1/B2,,,,,{16}E7,E6,E5,,{24},A1/A2/E2,,,,,,
E6,B5,,,,,B1/B2,,,
{16}E8,E5/B4,E6,B1/E2,B7,B3/E4,B5,E1/B1,B6,B4/E4,Chf[4:1],,,,
{4}E4,E5,E6,
{16}
5x>2[8:1]/6x,,,6,5,,,1,2>5[8:1],,1,,2/8,,,,
5/6<1[8:1],,,5,6,,,2,1<6[8:1],,2,,1/3,,,,
3/4<7[8:1],,,3,4,,,8,7-4[8:1],,1-5[8:1],,7,,1,,
{24}
7h[8:1],,,5x,7x,4x,6x,,,3/8,,,C,,,E5,E7,E4,E6,,,C,,,
{16}
4x<7[8:1]/3x,,,3,4,,,8,7<4[8:1],,8,,7/1,,,,
4/3>8[8:1],,,4,3,,,7,8>3[8:1],,7,,8,,,,
6/5>2[8:1],,,6,5,,,1,2-5[8:1],,8-4[8:1],,2,,8,,
{16}
2h[8:1],,5,3,7h[8:1],,3,5h[16:3],{24}E5,E6,E7,E8,,,
{16}2x-5[8:1],4x,,,2,,8,,1w5[8:1],7,,,1,,,,,,,,
{8}
3h[4:1]/4-6[8:1],,,,4,7,3/6,,
5h[4:1]/2-4[8:1],,,,6,3,2/5,,
1h[4:1]/4-6[8:1],,,,2,7,1V35[8:3]/8V64[8:3],,,,,,,
3,7,4,
6h[4:1]/5-3[8:1],,,,5,2,6/3,,
4h[4:1]/7-5[8:1],,,,3,6,7,8<5[8:1],,3,2,1>4[8:1],,5,6qq2[8:3],7,
8h[8:3],,,,,
{8}2,3,4,
5-8[8:1]/6,,4/5,,3,4,2/5,,
8-4[8:1]/1,,7/8,,6,5,7/4,,
4-1[8:1]/3,,5/4,,6,5,4pp8[8:3],3h[2:1],4,,,,,
2,1,8,5/7-4[8:1],,7/8,,2/5,6,1/7,,
2-5[8:1],,1/2,,4/6,3,2/7,1s5[4:1],,,,
{16}6,,5/7,,,4/6,,,3/5,,
2,4,2,,7,5,7,,4,5,3,6,
{8}
4-1[4:3],,5,,6,,7,,
8-5[4:3],,1,,2,,3,,
4qq1[4:3],,5,,6,,7,,8<1[2:1]*p1[2:1],,,,,,,
8,7,6,
2^5[8:1]/5^8[8:1],,2/5,,1/4h[8:1],8,4h[8:1]/7,8,
7^4[8:1]/4^1[8:1],,7/4pp8[8:3],,1,2,3q5-7-1[8:5],,
3/6h[8:5],,,,,,,
{16}
3,4,2h[16:3],,,5h[16:3],,,4h[8:3],,,,,,7,,7h[8:1],,
5,,4/6,,4/6,,3,5,1,7,4,6,2,5,3,7,
{4}1s5[16:9],,,,
{16}
7b-5[12:1],,,4,7-1[12:1],,,2,7-3[8:1],,4,,7,,,,
1b-7[12:1],,,6,1-3[12:1],,,4,1-5[8:1],,6,,1,,,,
8b-2[12:1],,,3,8-6[12:1],,,5,8-4[8:1],,2-6[8:1],,8,,2,,
{24}7h[8:1],,,6x,5x,4x,3x,,,8/1,,,7h[8:1],,,A6,A5,A4,A3,,,A8/A1,,,
{16}
2bx-4[12:1],,,5,2-8[12:1],,,7,2-6[8:1],,5,,2,,,,
8b-2[12:1],,,3,8-6[12:1],,,5,8-4[8:1],,3,,8,,,,
1b-7[12:1],,,6,1-3[12:1],,,4,1-5[8:1],,6-1[8:1],,1,,6,,
3qq5b[8:3],,,,3,,,,,,
{8}6,7,8,
{16}
1b-3[12:1],,,5-8[8:1],1,,,5,4^1[8:1]*^7[8:1],,4,,4,,,,
7b-1[12:1],,,2-6[8:1],7,,,2,8^5[8:1]*^3[8:1],,8,,8,,,,
4b-6[12:1],,,7-3[8:1],4,,,7,1-6[8:1],,2-5[8:1],,1,,2,,
{24}7h[8:1],,,5x,7x,4x,6x,,,1/2,,,7h[8:1],,,E5,E7,E4,E6,,,A1/A2,,,
{16}
8bx-6[12:1],,,4-1[8:1],8,,,4,5^8[8:1]*^2[8:1],,5,,5,,,,
2b-8[12:1],,,7-3[8:1],2,,,7,1^4[8:1]*^6[8:1],,1,,1,,,,
5b-3[12:1],,,2-6[8:1],5,,,2,8-3[8:1],,7-4[8:1],,8,,7,,
1pp8b[8:3],,,,1,,,,,,
{8}
6,5,4,
{16}
3b-6[8:1],,,7-4[8:1],3,,,7,1-4[8:1]*-6[8:1],,1,,1,,,,
3b-1[8:1]/5b-1[8:1],,,,3/5,,,,8-6[8:1]*-4[8:1],,1/2,,8,,,,
7b-2[12:1],,,3-8[8:1],7,,,3,6-2[8:1],,5-1[8:1],,6,,5,,
{24}7h[8:1],,,3x,6x,4x,5x,,,1/8,,,7h[8:1],,,A3,A6,A4,A5,,,A1/A8,,,
{16}
6b-3[8:1],,,2-5[8:1],6,,,2,8-5[8:1]*-3[8:1],,8,,8,,,,
6b-8[8:1]/4b-8[8:1],,,,6/4,,,,1-3[8:1]*-5[8:1],,8/7,,1,,,,
2b-7[12:1],,,6-1[8:1],2,,,6,3-7[8:1],,4-8[8:1],,3,,4,,
2qq4b[8:3],,,,2,,,,,,
{8}6,5,4,
{16}
2^7[8:1]/6,,,4,2,,,5,7^2[8:1],,5,,7,,,,
7^2[8:1]/3,,,5,7,,,4,2^7[8:1],,4,,2,,,,
2^7[8:1]/5,,,4,2,,,5,8,,2/4,,8,,2/4,,1/7,,5/6,,2/8,,4/5,,1b-4[8:1]/7b-4[8:1],,,,,,,,
{16}
7^2[8:1]/3,,,5,7,,,4,2^7[8:1],,4,,2,,,,
2^7[8:1]/6,,,4,2,,,5,7^2[8:1],,5,,7,,,,
7^2[8:1]/4,,,5,7,,,4,1,,7/5,,1,,7/5,,
E4,B3,B2,E2,E6,B6,B7,E8,B3,B4,B5,B6,A3,A4,A5,A6f,,,,
