&title=神鳴
&artist=Rígr feat. 光吉猛修
&first=-0.39
&des=重太
&lv_5=14+
&inote_5=(205)
{1},
{24}8bz4>1[8:13],7,6,5/Cf,,,
{4},,,,,,,
{8}7,7,5,5,6qq1[4:5],4,5,,,,,,,,,,,,,,,3,4,5h[8:6],,,,,,,
{16}E3,B3,B4,,
{8}6,6,5,7,4qq1[4:5],4,5pp8[8:8],,,,,,,,,,D1,,,,,,,,76,,,23,,,5h[16:1]/4h[16:1],,
{24}8b,7,6,5,4,3,2,1,8,7,6,5,4,3,2,1,8,7,6,5,4,3,2,1,Cf/8,7,6,5,4,3,2,1,8,7,6,5,4,3,2,1,8,7,6,5,4,3,2,1,8/Cf,7,6,5,4,3,2,1,8,7,6,5,4,3,2,1,8,7,6,5,4,3,2,1,
{16}E8,B7,B6,E6,E2,B2,B3,E4,
{8}5,4,6-1[8:1],6,4b,4,3,8,57,7,6/4-1[8:1],4,7b,7,8,2,53,5,46,4,7b/5,64,53,24,
{24}1,2,3,4,1,8,7,6,2,3,4,5,
{4}7-3[8:1],1s5[6:1],8<5b[8:1],,
{8}4,4,5,3,42,
{16}5,4,5,,6,,6,,5,,7,,82,,3,,8,,2,1,2,,7,,1,,6,,6,,75,,6,5,6,,4,,53,,6,5,6,,74,,6-1[8:1],,6,,5-1[8:1],,5,,7,,7,,2,,8,,8,1,8,,2-5[8:1],,7,,2,,,,8-5[8:1],,3,,8,,,,,,,,2,,2,,4,,4,,53,,3,4,3,4,3,,
{24}2,1,8,7,6,5,1,8,7,6,5,4,8b-3[8:1],,,,,,8b,,,,,,
{16}7-5[8:1],,5-1[8:1],,7,,3,,2,3,4,5,1,8,7,6,2-4[8:1],,4-8[8:1],,2,,6,,7,6,5,4,8,1,2,3,6>4[8:1],,4-8[8:1],,6,,2,,1,2,3,4,8,7,6,5,3-5[8:1],,5-2[8:1],,3,,7,,
{24}8,7,6,5,4,3,2,1,8,7,6,5,
{16}1-4-2[5:1],,1,,6,,6,,7,6,5,4,8,1,2,3,7-5-1[4:1],,7,,4,,4,,2,3,4,5,2,1,8,7,2-4v1[4:1],,2,,6,,6,,8,7,6,5,8,1,2,3,6,5,7,4,8,3,1-6[8:1],2v5[8:1],,,,,,,,,
{4}7xqq1[4:7]/4x,,,,,,
{8},4h[4:4],,,,,,,,Ch[8:7],,,,,,,,,,,
{16}3-8[8:1],4,3,4,3-5-1[8:2],,,,,,2,,,,,,6-1[8:1],5,6,5,6-4-8[8:2],,,,,,7,,,,,,5-7[8:1],,6,8,51,,1-5[8:1],,2b-4[8:1],,1,,2,,,,8-6[8:1],,1,3,48,,5-1[8:1],,4b-2[8:1],,5,,4,,,,7-4[8:1],8,7,8,7-1-5[8:2],,,,,,2,,,,,,2-5[8:1],1,2,1,2-8-4[8:2],,,,,,7,,,,,,8-6[8:1],,1,2,8,,1-5[8:1],,2b-4[8:1],,1,,2,,,,7-1[8:1],,6,5,7,,5-1[8:1],,4-8[8:1],,5b,,4b,,,,7,6,5,4,2,3,4,5,8,7,6,5,1,2,3,4,8,7,6,5,4/8-4-6b[4:1]*-4-2[8:2],1,2,3,4x/8,,,,,,,,7,6,5,4,1,2,3,4,8,7,6,5,2,3,4,5,1,8,7,6,5/1-5<7b[8:2]*-5>3[8:2],2,3,4,1x/5,,,,,,,,7,6,5,4,7,6,5,4,1,2,3,4,1,2,3,4,8,7,6,5,4/8-5-1b[4:1],7,6,5,48,,,,,,,,12,,83,,75,,43,,82,,65,,
2,4,2,4,2,,6h[4:1],,
{24}8-6-1b[8:2],1,2,3,,,85,,,,,,
{16}2,,2,,7<4q1[8:3],,,,8-3b[8:1],,,,,,,,,,,,74,,,,6-1[8:1]/5h[16:1],,6h[16:1]/5h[16:1],,4-8[8:1],,,,7,,,,7-4q1[8:3],,,,2-5b[8:1],,,,,,,,,,,,8-5[8:1],,,,3,,,,2h[16:1]/4,,2/4,,1/5h[16:1],,1/5,,8p3<5[8:3]/6,,,,6-1b[8:1],,,,,,,,,,,,7,5,7,5,6,6,6,6,6<1[8:1],,,,4-8[8:1],,,,7-5[8:1],,,,,,,,,4b,5,4,5,4,,,
{12}3,3,3,5,5,5,7,7,7,1-6-4-8[4:15],1,1,,,,,,,,,,,,,,,,,,,,,,,,,1-5-3-8b[4:6],,,,,,,,,,,,,,,,,,,,,,,,7b-4[8:4],,,7,,,8,,,8,,,2b-5[8:4],,,2,,,1,,,1,,,8b-6[4:1],,,1,,,2b-4[8:2],,,1,,,7v5[8:1],,,8,,,3,4,2,5qq8[8:4],4,6,,,,,,,1-5b[8:1],,,,,,
{12}6b,5b,6b,7/4-2[8:1],,,1b-5[8:1]/4,,,1/8b-6[8:1],,,8/4bv1[8:1],,,4/5b-7[8:1],,,5/8b-4[8:1],,,8/1b,,,2b,1b,2b,8-5[8:1]/3,,,8bv3[8:1]/2,,,6b/8v5[8:1],,,8b/1-4[8:1],,,1v6[8:1]/7b,,,1v4[8:1]/3b,,,8/1b,,,6b,5b,7bh[24:6],
{24}1-6[8:1],2,3,4,5,,1-4[8:1],,,,,,1,,,,,,
{12}6,5,7,4,5,3h[24:6],
{24}1-4[8:1],8,7,6,5,,,,,,,,
{12}
{24}5,4,3,2,1,8,7h[4:1],,,,,,4,5,6,7,8,1,2h[4:1],,,,,,
{12}6,6,4,8,8,1,
{24}8,7,6,5,1,2,3,4,1,8,7,6,5h[6:1]/3bh[6:1],,,,,1bh[6:1]/2h[6:1],,,,,8,7,6,1,2,3,,,7h[6:1]/5bh[6:1],,,,,3bh[6:1]/4h[6:1],,,,,2,3,4,7,6,5,,,
{16}6,5,6,2,4,2,7,8,
{1}7h[1:2],,
{4}1-4q1>3[8:24],,,,,,8-5p8<6[8:12],,,,,,,,,,6<4>6[4:10]/4h[8:8],,,,,,,5,5s1b[4:7],,
,,,,,,,,,,
{64}8z4[4:2],1s5b[4:2],,,,,,,,,,,,,,,
{4},,,4/6h[8:12],4-2[4:1],4,,8,8-2[8:2],8,,5/3h[8:12],5-7[8:2],5,,1,1-7[8:2],1,,6/4,5v8[8:2]*v2[8:2],5,,82,1q6[8:2]*p4[8:2],1,,75,6-1[8:2]*-2[8:2],6,,24,3q7[8:2]*qq1[8:2],3,,
{8}6h[4:1],,4h[8:2],,5<7[8:1],5,5,,2h[4:1],,8h[4:1],,1-3[8:1],1,1,,7h[4:1],,4h[4:1],,
{16}6,5,6,5,6,5,6,5,6-8[8:1],,,,6-4[8:1],,,,6,,,,,,,,
{16}6,5,6,5,6,3,4,3,4,7,5,7,5,2,4,2,4,6,5,7,4,8,3,1,2,4,3,5,2,6,1,7,8,6,5,6,2,4,2,8,5,8,1,4,1,6,4,8,3,5,1,7,8,7,2,1,
{24}2,8,1,8,1,8,1,8,1,8,1,8,
{4}1bw5b[4:2],,,,
{32}8,7,6,5,4,3,2,1,8,7,6,5,4,3,2,1,
{4}8-5[8:1]/4-1[8:1],84,
{16}2x,4,3,4,1x,5,4,5,8x,6,5,6,7x,6,5,6,4-2[8:1],,,,6-8[8:1]/4,,,,6/1-5[8:1],,,,12,,,,2x,5,4,5,2x,5,4,5,1x,6,5,6,1x,6,5,6,4-2[8:1],,,,1-5[8:1]/4,,,,1/6-8[8:1],,,,65,,,,4>2[8:1],,1,,4,,,,8-4[8:1],,7-5[8:1],,8,,7,,,,24,,
{24}3>7V13[4:2],4,3,4,,,
{8}7,6,5,4,5h[4:1],,4,,75,75,
{24}6,5,6,5,,,
{16}7/4-1[8:1],,,,4-7[8:1],,,,4-8[8:1],,,,4,,,,7x,5,6,5,8x,4,5,4,1x,3,4,3,2x,3,4,3,5-2[8:1],,,,5/8-4[8:1],,,,1>4[8:1]/8,,,,15,,,,7x,3,4,3,7x,3,4,3,8x,4,5,4,8x,4,5,4,8<5[8:1],,,,1>4[8:1]/8,,,,81,,,,
{24}6-8-2p5[8:4],5,6,5,,,
{16}4,,,,4,,,,4x<7[8:1],,,,43,,,,1,2,3,4,1,8,7,6,5-8b[8:1]/8-3[8:1],,,,5/8-4-6-1[8:3],,,,,,,,,,,,2b,1,2b,1,2b,1,2b,,83,,
{24}8,7,6,5h[4:1]/2,,,2,,,2,36,47,58,,,1,,,1<6pp7[8:3],,,
{8}2x-5-3b[8:2],,,,,,,,84,,6-4[8:1]/2-4[8:1],62,6<8[8:1]/2<8[8:1],,62,,7x-5-8[8:2],,1-4b[8:1],,1,,
{16}7,5,7,5,7qq8[8:3],,,,1,,,,1,2,3,4,5b>2[8:2],,,,2<7[8:2],,,,7<4[8:2],,,,4w8b[8:1],,,,,,,,7xp3[8:1],,,,8q4[8:1],,,,1p5[8:1],,,,2,,,,43,,43,,65,,65,,78,,78,,12,,12,,1,2,8,3,7,4,6,5,
{32}8,7,6,5,4,3,2,1,8,7,6,5,4,3,2,1,
{24}84,7xh,5xh,7x,5xh,7xh,5x,7x,5x,7xh,5xh,7x,5xh,7x,5xh,7xh,5xh,7x,5xb,,,,,,
{16}7b-4[8:1],8b,6b,1b,7b,,,,2b>5[8:1],1b,3b,8b,2b,,,,8b,1b,8b,1b,
{24}8bx,7bx,6bx,5bx,,,
{12}2x/4x,2x/4x,2x/4x,1x/5x,1x/5x,1x/5x,1b-4[24:2]/5b-8[12:1],,1b/5b,,,,
{32}8,7,6,5,4,3,2,1,8,7,6,5,4,3,2,1,8bpp2pp4pp6pp8b[4:7]/4h[8:16],
E
