&title=不可解
&artist=花譜
&first=0.04
&des=Zohar
&lv_5=12+
&inote_5=(134){1},
{16}3h[16:3],,,4h[16:3],,,5h[4:1],,,,6h[8:3],,,,,,
{16}2h[16:3],,,4h[16:3],,,5h[4:1],,,,7h[8:3],,,,,,
{16}3h[16:3],,,4h[16:3],,,5h[4:1],,,,6h[8:3],,,,,,
{16}2h[16:3],,,4h[16:3],,,5h[4:1],,,,7h[8:3],,,,,,
{16}4h[8:5],,,,B4,,B5,,,,,,B6,,,,
{16}3h[8:5],,,,B3,,B4,,,,,,B5,,,,
{16}4h[8:5],,,,B5,,B6,,,,,,B7,,,,
{4}Ch[4:3],A2,,A3,
{16}6x,,3,4,3,4,3h[8:1],,,,6,5,6,5,6h[8:1],,
{16},,2,4,3,5,4h[4:1],,,,,,6,5,6,5,
{16}7,4,7,4,8,3,8,3,1,2,1,2,4,3,4,3,
{16}4-7>8b[4:1],,3,,2,,1h[4:2],,,,,,,,,,
{16}4/5,,4/5,3,,6h[8:1],,4h[8:1],,,5,,3,4,3h[8:1],,
{16},,6,5,6,,7x/8x,,8x/1x,,1x/2x,,3,4,3h[8:1],,
{16}6,5,6,5,6h[16:1],3,4,3,4h[4:1],,,,3>8[8:1],,3,,
{16}5v8[8:1],,5,,3>7[2:1],,3,,E5,,E6,,E7,,E8,,
{16}Cf,,4,6,4,6,3,5,3,5,2,4,2,4h[16:3],,,
{16},,3,5,3h[8:1],,6h[8:1],,4h[8:1],,5,3,5,3h[16:3],,,
{16}4,2,4,2,5,3,5,3,6,4,6,4,7,5,7,5,
{16}6,4,6,4,5,3,5,3,4,2,4,2,4,2,,,
{16}4,3,,3,4h[8:1],,,3,3h[8:1],,6h[8:1],,5,6,5,,
{16}5/4,,5/4,,3,5,3,5,4,6,4,6,3,5,3b,,
{16},,4/3,,4/3,,4/3,,2,2,2,,4,4,4,,
{16}3,5,3,5,4,6,4,6,3,5,3,5,4b,,,,
{16}5/4h[8:1],,,6,4,,4/5,,5,3,5,,5b/4b,,,,
{16}3h[8:1]/4,,,5,3,,4/3,,3,6,3h[4:1],,6,,7,,
{16}3/5h[8:1],,,4,5,,3/5,,6,4,6,,6b/4b,,,,
{16}5/3[8:1],,,4,3,,5/3,,5,3,5h[4:1],,3,,2,,
{16}5/4h[8:1],,,6,4,,4/5,,5,3,5,,5b/4b,,,,
{16}3h[8:1]/4,,,5,3,,4/3,,3,6,3h[4:1],,6,,7,,
{16}7/5h[8:1],,,6,5,,6/4,,3,5,3,,4b-8b[8:1],,,,
{48}A4f,,,,,,,,E4f,B3,B2,E2,,,,,,,E5f,B5,B6,E7,,,{8},,,8w4b[268#4:1],
{16}8x<1[2:1]*>7[2:1]/A8f,,,,,,,,,,,,,,
{16}4-8-5[2:1],,4h[4:1],,,,,,5-2-7[4:1],,,,3h[8:1],,,,3,,
{16}4,,4,3,5>4>3>2<1<8[2:1],5,,,E5,,E4,,E3,,E2,,
{16}7hx[4:1],,,,8>3[8:1],,,,8<5[8:1],,,,8,,,,
{16}3,4,3,4,3,4,3,4h[16:7],B6,,B1,,B7,,B8,,
{16}6,5,6,5,6,5,6,5h[16:7],B3,,B8,,B2,,B1,,
{16}3,5,3,5,3,5,4,6,4,6,4,6,3,3,3h[8:7],,
{16}B3,,B2,,B1,,B8,,B7,,B6,,B5,,4bxw8b[268#4:1],,4>5[8:3]*<3[8:3]/A4f,,,,,,,,,,,,,,8<4pp3[8:5],,
{16}8h[4:3],,,,,,,,,,,,,,2,,
{16}4,,4,3h[16:9],E3,,E2,,E1,,E8,,7<4[8:1],,,,
{16}7>2[8:1],,,,7/3<6[8:1],,,,3>8[8:1],,,,3w7[8:1],,,,
{16}3,,,,,,3h[2:1],,7h[8:3],,,,,,,2,
{16}8-4[8:1],,1,,8/2-6[8:1],,1,,8/2,,1h[8:1],,,,4hb[8:7],,
{16}8b-5v2b[2:1],,,,,,,,,,,,,,3-6b[2:1],,
{1}2-8-5b[2:1],
{16}3,7,4,6,3,8,2,5,3,7,4,6,2,5,3,7,
{16}4,8,2,5,3,6,4,8,2,5,3,6,4,8,2,5,
{16}3,7,4,6,3,8,2,5,3,7,4,6,2,5,3,7,
{16}4,8,2,5,3,6,4,8,2,5,3,6,4,8,2,5,
{16}3,4,3,4,3,4,3,4,2,5,2,5,2,5,2,5,
{16}3,6,3,6,3,6,3,6,4,7,4,7,4,7,4,7,
{16}3,6,4,8,2,5,3,6,4,8,2,5,3,6,4,8,
{16}3,7,4,6,2-6b[8:1],5,3,8,A2f,,,,,,,,
{16}5h[8:5],,,,B5,,B4,,,,,,B3,,,,
{16}6h[8:5],,,,B6,,B5,,,,,,B4,,,,
{16}5h[8:5],,,,B4,,B3,,,,,,B2,,,,
{16}3h[8:5],,,,B5,,B6,,,,,,B7,,,,
{16}4h[8:5],,,,B4,,E5,,,,,,B6,,,,
{16}2h[8:5],,,,B6,,B7,,,,,,E5,,,,
{16}4h[8:5],,,,B4,,E5,,,,,,B6,,,,
{1}Ch[4:3],
E
