&title=まにまに
&artist=r-906
&first=0
&des=Dororo & Luvlily
&lv_6=12+
&inote_6=(174)
{16}
,,,,,,,,,,,,,,,,
,,,,,,,,,,,,,,,,
,,,,,,,,,,,,,,,,
,,,,,,,,,,,,,,,,
5b-1[2:1]/7h[4:3],,,,,,,,,,,,,,,,
4b-8[2:1]/2h[4:3],,,,,,,,,,,,,,,,
3bV58[2:3]/6bV41[2:3],,,,,,,,,,,,,,,,
,,,,,,,,,,,,,,,,
8^5[2:1]/1,,,,2,,,,3,,,,4,,,,
4^1[2:1]/5,,,,6,,,,7,,,,8,,,,
1,,1,,3,,3,,5,,5,,7,,7,,
1,2,3,4,7,6,5,4,2,3,4,5,8z4[1:2],7,6,5,
,,,,,,,,,,,,,,,,
,,,,,,,,,,,,,,,,
,,,,,,,,,,,,,,,,
,,,,,,,,,,,,,,,,
3h[4:3],,,,4,,4,,,,7,,7h[4:1],,,,
2h[8:5],,,,4,,4,,,,1,,,,,,
6h[4:3],,,,5,,5,,,,2,,2h[4:1],,,,
7h[4:3],,,,5,,5,,,,8,,8b,,,,
3-1[8:1],,,4,3,,4-8[8:1],,,,4,,2,,2-5[8:1],,
,,2,,7,,7-3[8:1],,,,4,,4,,,,
6-8[8:1],,,5,6,,5-1[8:1],,,,5,,7,,7-4[8:1],,
,,7,,2,,2-6[8:1],,,,5,,5,,,,
5h[8:5]/7V58[2:1],,,,,,,,,,,,,,,,
4h[8:5]/2V41[2:1],,,,,,,,,,,,,,,,
1-4[2:1]/8-5[2:1],,,,,,,,,,,,,,,,
{24}4,3,2,{16}1,8,{12}7,6,5,{16}4,,,,3b,,3,,
34,,,,35,,,,36,,,,37,,,,
38,,,,31,,,,3-7[8:1]/2,,,,34,,,,
65,,,,64,,,,63,,,,62,,,,
61,,,,68,,,,6-2[8:1]/7,,,,65,,,,
31,,3,,38,,3,,37,,3,,36,,3,,
68,,6,,61,,6,,62,,6,,63,,6,,
4,5,4,5,3,6,3,6,2,7,2,7,1,8,1,8,
1,,,,1,,,,1-5[8:1],,5b,,5b,,,,
6pp5[8:3],,,,6,,4,,3,,2,,1,,1^4[8:1],,
,,1^6[8:1]/7,,,,13,,,,3,,4,,3,,
5-7[8:1],,5,,2-6[8:1],,2,,8-3[8:1],,8,,4,,4h[4:1],,
,,5,,4,,5,,3v8[8:1],,7-4[8:1],,3,,7,,
1-5[8:1]*v6[8:1],,,,1,,,,47,,3,,2,,1-3[8:1]/5-7[8:1],,
,,1v6[8:1]/5v2[8:1],,,,15,,,,3,,37,,,,
8-5[8:1],,,,4-1[8:1],,,,6,,6z2[4:1],,7,,6h[4:1],,
,,,,,,1-3[8:1],,7-1[8:1],,1b,,7b,,,,
3qq4[8:3],,,,3,,5,,6,,7,,8,,8^5[8:1],,
,,8^3[8:1]/2,,,,86,,,,6,,5,,6,,
4-2[8:1],,4,,7-3[8:1],,7,,1-6[8:1],,1,,5,,5h[4:1],,
,,4,,5,,4,,6v1[8:1],,2-5[8:1],,6,,2,,
8V62[4:1],,,,,,3,,3V51[4:1],,,,,,8,,
8V62[4:1],,,,,,3,,3V51[4:1],,,,,,8,,
8^5[4:1],,,,5^2[4:1],,,,2^7[4:1],,,,7^4[4:1],,,,
4bw8[8:1],,,,,,,,2,7,2,,1,8,1,8,
1h[4:1],,,,4,3,5,4,6v1[8:1],,5<3[4:1],,6,,5,,
,,7,,7,1,8,1,7-5[8:1],,8,,17,,,,
3,,3,,4,5,3,4,2^5[8:1],,1qq1[4:1],,2,,1,,
,,3,,3,7,2,6,3,,27,,8,1,8,1,
8h[4:1],,,,5,6,4,5,3v8[8:1],,4>6[4:1],,3,,4,,
,,2,,2,8,1,8,2^4[8:1],,1,,28,7,6,,
6h[4:1],,,,3,4,3,6,5,6,3,4,2,6,5,7,
1b-5[8:1],,,,1b^4[8:1]*^6[8:1],,,,1bw5[8:1],,,,1b,,,,
,,,,,,,,,,,,,,,,
,,,,,,,,,,37,,{32}1-5[8:1],2,3,4,5,6,7,8,
{16}1b,,,,46,,5,,6<2[16:3],,6,,4,,4V63[4:1],,
,,7-2[8:1]/4,,,,7,,,,3,,45,,6,,
7-3[8:1],,7,,5^2[8:1],,5,,1-6[8:1],,1,,3,,3h[4:1],,
,,4,3,4,,53,,1-5[8:1],,6<3[4:1],,1,,6,,
4-1[8:1]*v7[8:1],,,,4,,,,26,,3,,4,,1v6[8:1]/5v2[8:1],,
,,1^4[8:1]/5^8[8:1],,,,15,,,,56,,47,,,,
4p8[8:1],,,,6-2[8:1],,,,3,,3s7[4:1],,4,,3h[4:1],,
,,,,,,4-2[8:1],,7-5[8:1],,4b,,7bv4[8:1],,,,
{16}7b,,,,35,,4,,3>7[16:3],,3,,5,,5V36[4:1],,
,,2-7[8:1]/5,,,,2,,,,6,,45,,3,,
2-6[8:1],,2,,4^7[8:1],,4,,8-3[8:1],,8,,6,,6h[4:1],,
,,5,6,5,,46,,8-4[8:1],,3>6[4:1],,8,,3,,
5V36[4:1],,,,3,,2,,1V37[4:1],,,,7,,6,,
5V74[4:1],,,,4,,3,,2h[4:1],,,,1,2,1,2,
1-5[8:1],,,,17,,,,8-4[8:1],,,,28,,,,
5q1[8:1]/3-7[8:1],,,,3<2[4:1]/5,,,,3,,,,5bw1[8:1],,,,
{16}5b,,,,8,,6,,3>7[16:3]/7,,3,,5,,4V26[4:1],,
,,1V37[4:1]/4,,,,1,,,,5,,5,,8,,
2-6[8:1],,2,,8q4[8:1],,8,,5^2[8:1],,5,,1,,1h[4:1],,
,,2,1,3,,48,,7v4[8:1],,3>5[4:1],,7,,3,,
4v7[8:1]*-1[8:1],,,,4,,,,62,,5,,4,,7v4[8:1]/3v8[8:1],,
,,7^2[8:1]/3^6[8:1],,,,73,,,,37,62,15,,,,
6-2[8:1],,,,4p8[8:1],,,,6,,6V85[4:1],,7,,5-1[8:1]/6,,
,,,,,,3-5[8:1],,1-7[8:1],,3b,,1bv4[8:1]*v6[8:1],,,,
{16}1b,,,,3,,1,,6<2[16:3]/2,,6,,4,,5V73[4:1],,
,,8V62[4:1]/5,,,,8,,,,4,,4,,1,,
7-3[8:1],,7,,1p5[8:1],,1,,4^7[8:1],,4,,8,,8h[4:1],,
,,7,8,6,,51,,2v5[8:1],,6<4[4:1],,2,,6,,
5V38[4:1],,,,1,8,7,6,5V74[4:1],,,,4,3,2,1,
8V25[4:1],,,,4,5,6,7,8h[4:1],,,,1,2,3,4,
5-1[8:1]/7,,,,35,,,,4-8[8:1]/2,,,,47,,,,
5w1[8:1]/1,,,,5,,,,8q4[8:1]/6-2[8:1],,,,8bqq5[4:7]/6b,,,,
8b,,,,,,,,,,,,,,,,
,,,,,,,,,,,,,,,,
8-4[8:1],,,,8/3,,2,,1-3[8:1],,3-8[8:1],,1,,5V73[4:1],,
,,8V25[4:1]/5,,,,8,,,,8,,1,8,7,6,
5-1[8:1],,,,5/2,,3,,4-2[8:1],,2-5[8:1],,4,,8V62[4:1],,
,,5V38[4:1]/8,,,,5,,,,6,,5,6,7,8,
1-5[8:1],,,,1/6,,7,,8-6[8:1],,6-1[8:1],,8,,4V26[4:1],,
,,1V73[4:1]/4,,,,1,,,,1,,8,1,2,3,
4p8[2:1]/6-2[2:1],,,,,,,,,,,,,,,,
6-2[8:1],,,,,,,,,,18,,6,5,6,5,
7/4h[16:3],,,1h[16:3],,,8h[4:1],,,,5w1[8:1],,,,5b,,
,,37,,1V35[8:1]/5V71[8:1],,,,1bz5[8:1]/5b,,,,
,,,,,,,,,,,,,,,,
E
