&title=うそつきマカロン
&artist=暴飲暴食P
&first=0.59
&des=南うらい
&lv_5=13
&inote_5=(110)
{24}3h[8:1]/5,,,4,,4,3,,,2h[8:3],,,E3,,,E4,,,E5,,,E6,,,
{24}6h[8:1]/4,,,5,,5,6,,,7h[8:3],,,E6,,,E5,,,E4,,,E3,,,
{24}1h[8:1]/8,,,8,,8,1,,,2/7h[8:3],,,E1,,,E7,,,E5,,,E3,,,
{24}1h[8:1],,,4,,3,8h[8:1],,,5,,6,1/5,,2/6,,3h[3:1]/7,,,,,,,,
{24}8h[24:5],,,,,A6/D6/E6/B6f,,,,2h[4:1],,,4-7[8:1],,,5-1[8:1],,,4,,,5,,,
{24},,2,8,,8,6,,6,8,,8,2-6[8:1],,2,4-8[8:1],,,2,,,4,,,
{24},,2,1,,1,2h[4:1],,,3,,,4pp6[8:1]*^2[8:1],,4,,,,,,,,,,
{8}1-5[8:1]/5,8,1/7-4[8:1],8,7/3p6[8:1],2,3/8,,
{24}5,,5,7,,7h[8:1],,,4,6,,6,2v5^4[8:1],,2,4-1[8:1],,,,,,,,,
{24},,6,4,,4,5,,5,4,,4,3/5,,3/5,,3/5,,2/6,,2/6,,2/6,,
{8}1-5[8:1]/7,8,1/7-3[8:1],8,1v6[8:1]/7,8,1/7v2[8:1],8,
{12}8q5[4:1]/7,,,8/5^2[4:1],,,1,8,7,6-1[8:1],,,
{8}3b-7[8:1],2,8qq5[8:3],1,4,3,2-8[8:1],1,
{8}7-3[8:1],6,4qq8[8:3],5,8,7,6,5,
{24}2h[12:1],,4,3,,,7h[12:1],,5,6,,,1h[12:1],,4,3,,,8h[12:1],,5,6,,6,
{24}4,,4,3,,3,4,,4,5,,5,6,,6,5,,5,4-8[8:1],,,3/6,,,
{8}7b-5[8:1],6,1pp5[8:3],2,5,6,7-4[8:1],8,
{8}3-8[8:1],2,6pp4[8:3],7,4,3,2,1,
{24}2,,2,4,,4,1,,1,6,,6,5,,5,8,,8,1,,1,3,,3,
{8}2h[4:1],,8,1/7h[2:1],,1-6[16:1],8V26-4z8b[8:7],1V73-5s1[4:3],
{1},
{24}2h[8:1],,,4,,4,3,,,2h[4:1],,,1^4[8:1],,,8,,,7,,,6,,,
{24}7h[8:1],,,5,,5,6,,,7h[4:1],,,8^5[8:1],,,1,,,2,,,3,,,
{24}4h[8:1],,,3,,3,4h[8:1],,,5h[4:1],,,6V84[4:1],,,7,,,8V24V68[1:1],,,1,,,
{1},
{24}1^3[8:1],,,7,,,6,,,5,,5,4h[4:1],,,5,,,6pp5qq4[4:3],,,7,,,
{24},,,,,,,,,,,,,,,,,,2,,2,5,,5,
{4}4^1[8:1],7^4[8:1],2^7[8:1],5^2[8:1],
{4}8^5^2[4:1],2-5-8[4:1],8s4[16:5],1-5b[16:1],
{24}1b,,,,,,3,,3,4,,4,2>6[4:1],,,1,,,2/6V42[4:1],,,7,,,
{8}8h[4:1],,,,7h[4:1]/1-4[8:1],,,6,
{4}5<1[4:1],1>5[4:1],5<1[4:1],1>1<1[1:1],
{1},
{24}3h[8:1],,,1,,1,2h[8:1],,,4,,4,3^6[8:1],,,2,,,3/8,,,1h[8:1],,,
{24}5,,5,8,,8,1,,1,4h[8:1],,,2,,2,8,,8,6^1[8:1],,,5/7,,,
{8}2/6^3[8:1],4,2/6^1[8:1],8,2/6-2[8:1],4,2/6,8h[8:1],
{24}1h[4:1],,,,,,4h[4:1],,,,,,7,,8,,1,,2-5[8:1]/8,,,1,,,
{8}2b/8b-4[8:1],1,2qq5[8:3],3,5,6,7-4[8:1],8,
{8}3-8[8:1],2,5-1^7-4[8:3],4,1,2,2,3,
{24}2/5,,4,3,,,7/4,,5,6,,,1/6,,4,3,,,8/3,,5,6,,6,
{24}5,,5,3,,3,4,,4,6,,6,5h[8:1],,,3h[8:1],,,4-1[8:1],,,6,,,
{8}4b/7b-4[8:1],8,2qq5[8:3],1,5,6,7-3[8:1],8,
{8}2^8[8:1],1,7-4[8:1],6,1/7V15[8:1]*^2-5[8:1],8,7,,
{24}7,,7,5,,5,4h[8:1],,,5,,5,8,,8,1,,1,4h[8:1],,,5h[8:1],,,
{8}4-8[8:1],,1/4,2h[2:1],,1-6[16:1],8V26-4z8b[8:7],1V73-5z1[4:3],
{1},
{8}2/7h[8:1],5h[8:1],4h[8:1],2h[8:1],3<1[4:1],,2,3,
{24}4,,4,2,,2,3,,3,1,,1,2-5-8[4:1],,,,,,2/8,,,,,,
{24}1h[4:1],,,7,6,5,4,3,2,1,8,7,6-3[8:1]/2-7[8:1],,,,,,2/6,,,,,,
{16}4h[8:1]/8h[8:1],,,1h[8:1]/5h[8:1],,,2/6,,3-8[8:1]/7-4[8:1],,,,7^5>5V31V75[4:15]/3,,,,
{1}5xV31V75^3^1^7^5b[2:7],,,,
{4}2h[8:1]/4h[8:1],2h[8:1]/8h[8:1],6h[8:1]/8h[8:1],6h[8:1]/5>1[4:1],
{4}1<5[4:1],5>1[4:1],1-5[8:1],6,
{8}4/7qq4[2:1],,,2,,1,1,,
{8}5/2pp5[2:1],,,7,,8,8h[4:3],,
{8},,,,1b-6[8:1],2,7p4[8:3],8,
{8}4,3,2-6[8:1],1,2/5-8[8:1],4,2pp1[8:3],3,
{24}5,,,6,,,7-3[8:1],,,8,,,1-5[8:1]/7,,8,8,,,1/7-3[8:1],,8,8,,,
{24}1-5[8:1]/7,,8,8,,,1/7,,8,8,,4,7,,7,5,,5,6,,6,2,,2,
{8}4-1[8:1]/3,2/1-5b[8:1],,,2b-6[8:1],3,8-5[8:1],7^2[8:1],
{8}8-4b[8:1],7,8-3[8:1],,6-1[8:1]/8,7,4-7[8:1],5-2[8:1],
{24}4-8b[8:1],,,5,,,4,,,,,,7,,8,2,,1,7,,8,2,,1,
{24}7,,6,4-7[8:1],,3,5-1b[8:1],,,,,,,,,,,,1/8,,,2/7,,,
{8},4/5,3qq4[4:3]/6,4/5pp4b[8:5],,,,,
{24},,,,,,,,,,,,2h[8:1],,,4,,4,5,,5,4,,,
{24}3v5[8:1],,,4,,,5,,,6,,,7h[8:1],,,5,,5,4,,4,5,,,
{24}6v4[8:1],,,5,,,4,,,3,,,2h[8:1],,,3,,3,5,,5,4,,,
{24}3v8[8:1],,,4,,,5,,,6,,,7v4[8:1]/1,,,8,,,1-5[8:1]/7,,,8,,,
{24}1/6v1[8:1],,,7,,,4/6,,,3,,,2h[8:1],,,4,,4,5,,5,4,,,
{24}3v5[8:1],,,4,,,5,,,6,,,7h[8:1],,,5,,5,4,,4,5,,,
{24}6v4[8:1],,,5,,,4,,,3,,,2h[8:1],,,3,,3,5,,5,4,,,
{24}3v8[8:1],,,4,,,5-1[8:1],,,6,,,5x/2-6[8:1],,,,,,2x/7-3[8:1],,,,,,
{4}7x/5pp5[4:1],5xqq4b[1:1],,
