&title=空間創造理論
&artist=Sound piercer
&first=1.37
&seek=0.00
&wait=0.00
&des_1=音合わせ譜面
&des_5=CASCADE.Tech
&desid_5=001
&wholebpm=138
&demo_seek=17.2
&demo_len=17
&lv_1=音
&lv_5=14 ®ulation_5=3.0A
&videourl=https://youtu.be/SDzBLVxKxKI ¬ify_n_lv=5 ¬ify_c_lv=5
&create_date=20251115
&creatorscomment=CHUNITHMより - 3.0のためLIFE優しめ設定
&inote_1=(138)
{4},
1,1,1,1,1,1,1,1,1,1,1,1,1,1,1,1,1,1,1,1,1,1,1,1,1,1,1,1,1,1,1,1,
1,1,1,1,1,1,1,1,1,1,1,1,1,1,1,1,1,1,1,1,1,1,1,1,1,1,1,1,1,1,1,1,
1,1,1,1,1,1,1,1,1,1,1,1,1,1,1,1,1,1,1,1,1,1,1,1,1,1,1,1,1,1,1,1,
1,1,1,1,1,1,1,1,1,1,1,1,1,1,1,1,1,1,1,1,1,1,1,1,1,1,1,1,1,1,1,1,
E
&inote_5=
(138)
{4}
,
{4}3bs7[4:2]/6bz2[4:2],,,,{16}27,,54,,1,8,,63,,27,27,,4,5,4,,
{4}
3hx[4:7]/6b,E5,E4,E3,E2,E1,E8,E7,
{8}
1b/E6/D6,,E5/D5,7b,E4/D4,,E3/D3/5b,,E2/D2,7b,E1/D1,,E8/D8/4bw8[8:1],,4b,,
{8}4x>6[4:1],1h[8:1]/5,{16}4,1,,5,5-1[8:1],,4h[8:3]/8,,
,,,,
{8}8x<2[4:1],5h[8:1]/1,{16}8,5,,1,1-5[8:1],,8h[8:3]/4,,
,,,,
{8}4x>6[4:1],1h[8:1]/5,{16}4,1,,5,5-1[8:1],,4h[8:1]/8,,
,,,,
{8}7x-3[8:1],6h[8:1]/2,{16}7,6,,6,2x,3x/7x,4x/8x,1x/5x,
,,,,
{16}
3,4,1,4,8,5,4,5,4w8[8:1],7,8,7,
,,,,6,5,8,5,1,4,5,4,5bw1[8:1]b,2,1,2,
,,,,
3,4,1,4,8,5,4,5,4w8[8:1],7,8,7,
,,,,6,5,8,5,1,4,5,4,5b-1[8:1],2,1^6[8:1],2,
,,,,
{16}
4-8[8:1],,3,2,4x,1,2,3,1-5[8:1],4,3,2,
1x,,,,
8-4[8:1],,7,6,8x,5,6,7,5-1[8:1],8,7,6,
5x,,,,
4-8[8:1],,3,2,4x,1,2,3,1-5[8:1],4,3,2,
1x,,4,4,
{16}4hx[8:1]/8hx[8:1],,,6hx[8:1]/2hx[8:1],,,7hx[8:1]/3hx[8:1],,,5hx[8:1]/1hx[8:1],,,8x/4x,,6x/2x,,
{16}5x<3[4:1],,8/4,8,{16}5,8,,4,4-8[8:1],,5h[8:3]/1,,
,,,,
{16}1x>7[4:1],,4/8,4,{16}1,4,,8,8-4[8:1],,1h[8:3]/5,,
,,,,
{16}5x<3[4:1],,8/4,8,{16}5,8,,4,4-8[8:1],,5h[8:3]/1,,
,,,,
{8}2x-6[8:1],3h[16:2]/7,{16}2,3,,3,7x,6x/2x,5x/1x,8x/4x,
7bx/3bx,,,,
{16}
5-1[8:1],,6,7,5x,8,7,6,8-4[8:1],5,6,7,
8x,,,,
1-5[8:1],,2,3,1x,4,3,2,4-8[8:1],1,2,3,
4x,,,,
5-1[8:1],,6,7,5x,8,7,6,8-4[8:1],5,6,7,
8x,,5,5,
{16}5hx[8:1]/1hx[8:1],,,3hx[8:1]/7hx[8:1],,,2hx[8:1]/6hx[8:1],,,4hx[8:1]/8hx[8:1],,,1x/5x,,3x/7x,,
{16}6x/2x,5,4,3,7V53[4:1],8,1,2,3V17[4:1],,,,7,,,,4-1[8:1],,,,4/3,,,,4/8-4[8:1],,,7,8,,6,,
3b/4x,4,4,,52,5,5b/4,,62,,4,,7b/3,7,5,5,8,8,1/8b,,1,1,71,,8b-4[8:1]/2,,4h[8:1]/6,,8b,,,,
{16}1x-5[8:1]/5,,3,4,1,6,7,8,1x-3[8:1]/5x-7[8:1],,84,,
,,,,
{16}8x-4[8:1]/4,,6,5,8,3,2,1,8x-6[8:1]/4x-2[8:1],,15,,
,,,,
{16}1x-5[8:1]/5,,3,4,1,6,7,8,1x-3[8:1]/5x-7[8:1],,84,,
,,,,
{8}8v5[8:1]/4v1[8:1],,8-3[8:1]/4-7[8:1],,84,,26,,
{16}3x/7x,4,5,6,2V46[4:1],1,8,7,6V82[4:1],,,,2,,,,5-8[8:1],,,,5/6,,,,5/1-5[8:1],,,2,1,,3,,
{16}6b/5x,5,5,,47,4,4/5b,,37,,5,,2/6b,2,4,4,
{16}1,1h[16:2],{32}7b,6,5,4,{16}2,2h[16:2],{32}5b,6,7,8,
{16}3,3,{32}1,8,7,6,
{16}5x/A1f/E1/E2/B1/D2/D1,,,,
{16}8x-4[8:1]/4,,6,5,8,3,2,1,8x-6[8:1]/4x-2[8:1],,15,,
,,,,
{16}1x-5[8:1]/5,,3,4,1,6,7,8,1x-3[8:1]/5x-7[8:1],,84,,
,,,,
{16}8x-4[8:1]/4,,6,5,8,3,2,1,8x-6[8:1]/4x-2[8:1],,15,,
,,,,
{8}1v4[8:1]/5v8[8:1],,1-6[8:1]/5-2[8:1],,1v3[8:1]*v7[8:1]/5,,
,,
{4}5<4[4:13]/B1f/A1/E1/E2/D1/D2,,E7,,
E8,,E1,,
E2,,E3,,
C,,B8/A8/E1/E8,,
{4}4>5[4:13]/Cf,,E6,,E7,,E8,,E1,,E2,,E3,,E4,,
{16}
3x/7x,,
7x-3[16:1]/3x,,,A7f/2x-5[16:1]b,,,A2f/6x-1[16:1],,,A6f/4x-8[16:1]b,,,
A4f/7x-3[16:1],,,A7f/2x-6[16:1]b,,,A2f/5x-1[16:1],,,A5f/3x^6[16:1]b,,,A3f/8xw4[16:1]b,,,A8f,,,
{16}
6x/2x,,
2x-6[16:1]/6x,,,A2f/7x-4[16:1]b,,,A7f/3x-8[16:1],,,A3f/5x-1[16:1]b,,,
A5f/2x-6[16:1],,,A2f/7x-3[16:1]b,,,A7f/4x-8[16:1],,,A4f/6x^3[16:1]b,,,A6f,,{32}7bx,8x,1x,2x,
{16}6h[8:1],,4,5,
{16}3x,4,3,6x,5,6,2x,4,3,8x,5,6,1x,4,3,7x,5,6,3x,4,1,6x,5,8,4x,1,2,5x,8,6,
{16}6,2,
4bx,1,1,7bx,5,5,2bx,4,4,6bx,1<3-1-7-5pp4[4:3]b,4,2bx,8h[16:13],
{8},,,,
,,
A4f,,
{16}
2x^8[8:1]/4,,3h[8:1]/5,,2,4,,4,2x^8[8:1],,5h[8:1]/3,,2,4,,,
2x^8[8:1]/4,,3h[8:1]/5,,2,4,,4,2x^8[8:1],,5h[8:1]/3,,2,4,,,
2x^8[8:1]/4,,3h[8:1]/5,,2,4,,4,2x^8[8:1],,5h[8:1]/3,,2,4,5,6,
1x,2,3,4,1,8,7,6,1x-7[8:1]/5x-7[8:1],2,3,4,1b/5x,,,,
4-8[8:1],,5,2,4x,1,2,3,1^6[8:1],4,3,2,1x,,,,
8-4[8:1],,1,6,8x,5,6,7,5^2[8:1],8,7,6,5x,,,,
4-8[8:1],,5,2,4x,1,2,3,1^6[8:1],4,3,2,1x,3,,3,
{16}5x,4,6x,,3,2x/4x,,6,1x-5[8:1]b,5,3,6,A1f,,,,
7x/8x,,43,,43,52,,25,3x/4x-1[8:1],,6h[8:1]/2,,4,7,6,5,
3x/4x,,87,,87,16,,61,7x/8xw4[8:1]b,,2/6,,B8f/E1/E8,,,,
2x/1x,,56,,56,47,,74,6x/5x-1[8:1],,3h[8:1]/7,,5,2,3,4,
5x/8x,7,6,5,8,1,2,3,8x-2[8:1]/4x-2[8:1],7,6,5,8b/4x,,,,
{16}7x,7,
{16}3x,4,3,6x,5,6,2x,4,3,8x,5,6,1x,4,3,7x,5,6,3x,4,1,6x,5,8,4x,1,2,5x,8,6,
{16}6,2,
4bx,1,1,7bx,5,5,2bx,4,4,6bx,1,5,2bx,8,4,4h[16:1],
{48}D8/A7/E8f,D7,A6,
D6,A5,,
,,,
{48}D1/A1/E1f,D2,A2,
D3,A3,,
{16}8x,
{16}8xw4[8:1]b,,4x,4x,B8f/E1/E8/B1/B7/D1/D8,,,,
{16}5x<3[4:1],,8/4,8,{16}5,8,,4,4x-8[8:1]b,,5h[8:3]/1,,
,,,,
{16}1x>7[4:1],,4/8,4,{16}1,4,,8,8x-4[8:1]b,,1h[8:3]/5,,
,,,,
{16}5x<3[4:1],,8/4,8,{16}5,8,,4,4x-8[8:1]b,,5h[8:3]/1,,
,,,,
{8}2x-6[8:1],3h[16:2]/7,{16}2,3,,3,7x,6x/2x,5x/1x,8x/4x,
7bx/3bx,,,,
{16}
2h[8:1]/6,,4h[8:1],,6,4,,4,6^3[8:1],4,2,,
,,,,
6h[8:1]/2,,8h[8:1],,2,8,,8,2^7[8:1],8,6,,
,,,,
2h[8:1]/6,,4h[8:1],,6,4,,4,6>8[4:1],4,2,,
6^7v4q8-3v1^2[8:6]b,,,,
{4},,,A5/B5/E5/E6,,
{1},,,E
