&title=そして時代は続く
&artist=初音ミク; 鏡音リン; 鏡音レン; カンザキイオリ
&first=0.02
&des=「画面越しの感動よりあなたの温もりが欲しかった」
&lv_5=13
&inote_5=(180)
{1},
{1}3>6[2:3],
{1}5h[4:3],
{1}5<3[2:3],
{1}4h[4:3],
{4}3b,34,34,24,
{4}14,84,74,64,
{4}45,53,42,13,
{8}28,,17,,1h[1:0],1h[1:0],1h[1:0],1h[1:0],
{8}2bV41[4:1]/8b,,7,6h[4:1],,2,3h[4:1]/5,,
{8}6,74,3-1[8:1]/8-4[8:1],,,,,,
{8}5V74[4:1],,3,2h[4:1],,5,6h[4:1]/3,,
{8}2,35,4^1[8:1]/6^1[8:1],,,,,,
{8}7V58[4:1]/3,,2,3h[4:1],,7,6h[4:1]/4,,
{8}3,25,6-8[8:1]/1-5[8:1],,,,,,
{8}4V25[4:1],,6,7h[4:1],,4,38,,
{8}17,17,26,26,{16}3,4,3,,1b/7b,,,,
{1}6xpp5>6[8:15]/2x,
{1},
{8}2h[4:3],,,4,,,5,,
{8}7h[4:3],,,3,,,4,,
{8}56,,4,5,4,,35,,
{8}6,5,4,,35,,3,4V68z4[8:13],
{1}5V31s5[2:3],
{1},
{8}2x/6x,,3,4,3,5,3>6[8:3],,
{4}6,5<3[8:3],4,3,
{8}45,,6,5,7,5,6<3[8:3],,
{4}5,4>6[8:3],6,5,
{8}3h[8:3],,5,6,4,7,3-1[8:1],,
{8}35,,3-8[8:1],,35,6,4,7-4>5[8:5],
{8},4h[8:5],,,,,,,
{8}3,3,5,5,{16}4,6,4,6,4,6,4,6,
{8}3x-1[8:1],,7,5,3-1[8:1],,7,5,
{8}3-8[8:1],,7,5,3-8[8:1],,7,5,
{4}3^8[4:1],8^5[4:1],5^2[4:1],1,
{4}8,17,2-4[8:1]/6-4[8:1],26,
{8}8h[4:1],,2,3,47,6,3/5h[4:1],,
{8}2,2,4,4,3,5,,46,
{8}7,6,4,3,6,5,3,2,
{8}5-7[8:1],5,1-3[8:1],1,8-4[8:1],8,1-5[8:1],1,
{4}7<2[4:7],1h[2:3],,,
{1},
{8}8h[4:1],,,8h[4:1],,,1h[4:1]/7h[4:1],,
{8},1h[4:1]/7h[4:1],,,2-4[8:1]/6-8[8:1],,,,
{8}1bh[4:1]/7bh[4:1],,,2h[4:1]/6h[4:1],,,3h[4:1]/7h[4:1],,
{8},4h[4:1]/8h[4:1],,,1-6[8:1]/5-2[8:1],,,,
{8}7h[4:1]/3h[4:1],,,6h[4:1]/2h[4:1],,,5h[4:1]/1h[4:1],,
{8},4h[4:1]/8h[4:1],,,8^3[8:1]/4^7[8:1],,,,
{4}1b,1,24,24,
{4}35,35,46,57,
{8}46,5,24,3,47,6,25,3,
{4}8-4[8:1]/4,18,B4,B1/E2,
{8}2-6[8:1],2,4-7[8:1],4,2-6[8:1],1,4w8[8:1],,
{8}4,,26,,35,4,56,7,
{8}8-4[8:1],8,5-2[8:1],5,8-4[8:1],7,5w1[8:1],,
{8}5,,37,,65,34,2^5[8:1]/8,,
{16}2/7^2[8:1],,,,37,,,4,4^1[8:1]*^7[8:1],,,,4,,,,
{8}26,3,47,6,35,{16}6,5,6,,47,,
{8}8-6[8:1],4,8-3[8:1],5,8-6[8:1],4,8-3[8:1],,
{16}8/5-2[8:1],,,,56,,,,7,1,7,1,7,1,7,1,
{8}7-3[8:1],7,5-2[8:1],5,7-3[8:1],8,5v8[8:1]*v2[8:1],,
{8}5,,73,,64,5,43,2,
{8}1-5[8:1],1,4-7[8:1],4,1-5[8:1],2,4q1[8:1]*p7[8:1],,
{8}4,,62,,34,65,7^4[8:1]/1,,
{8}27,,3>7[4:1],5,7V13[4:1],,6,,
{8}4,,6<2[4:1],4,2V86[4:1],,3,,
{8}4,3,6,7,28,3,45,6,
{4}7^5[8:1]/8p4[8:1],8^2[8:1]/7q3[8:1],78,1b/6b,
{4}2x-6[8:1]/5x,2x/7x-4[8:1],3-7[8:1]/7,35,
{4}1w5[8:1],1b,8w4[8:1],8b,
{8}7bV58[4:1]/1b,,4,3,2-5[8:1],,82,,
{8}7,5,3^8[8:1],,3/7p3[8:1]*v4[8:1],,7,,
{8}2V83[4:1],,7,6,5-8[8:1],,54,,
{8}2-5[8:1],2,6-2[8:1],6,4,3,8b/1b,,
{8}2bV41[4:1]/7b,,5,6,7-4[8:1],,17,,
{8}2,4,6^1[8:1],,6/2q6[8:1]*v5[8:1],,2,,
{8}7V16[4:1],,2,3,4-1[8:1],,45,,
{8}82,56,71,34,{16}6,5,6,,8b/2b,,,,
{1}3b^1q5pp7b[4:7]/7b^1p5qq3b[4:7],
