&title=Infinity Hevean
&artist=HyuN
&first=0
&des=Dororo
&lv_5=14
&inote_5=
(160)
{16}
,,,,,,,,,,,,,,,,
1-6[8:1],,,3,,,5,,,,,,3,,2,,
1-6[8:1],,,3,,,5,,,,,,3,,2,,
1-6[8:1],,,3,,,5,,,,,,3,,2,,
1-5[8:1],,,8,,,7,,4,,3,,2,,1,,
8-3[8:1],,,6,,,4,,,,,,7,,,,
8-3[8:1],,,1,,,2,,4,,5,,6,,7,,
8^3[8:1],,,7,,,6,,6^1[8:1],,,5,,,4,,
4^7[8:1],,,3,,,2,,2^5[8:1],,1,,8,,7,,
65,,6h[4:1],,,,,,47,,4h[4:1],,,,,,
65,,6h[4:1],,,,5,,47,,8,,1,,2,,
34,,3h[4:1],,,,,,25,,5h[4:1],,,,,,
34,,3h[4:1],,,,4,,25,,1,,8,,7,,
65,,6-1[8:1],,,,5,,4,,3-8[8:1],,,,4,,
5,,6-2[8:1],,,,1,,3,,5,,7,,1,8,
2b/7b,,,,,,,,,,,,,,,,
4,,,,6,,,,2,,,,8,,3,4,
3-8[8:1],,3,,4,,5^2[8:1],,,,7,,6,,5,,
4-1[8:1],,4,,5,,6^3[8:1],,,,8,,7,,6,,
5-2[8:1],,5,,6,,7^4[8:1],,,,1,,8,,7,,
6-1[8:1],,2-6[8:1],,6,,2,,1,,8,,7,,6,5,
6-1[8:1],,6,,5,,4^7[8:1],,,,2,,3,,4,,
5-8[8:1],,5,,4,,3^6[8:1],,,,1,,2,,3,,
4-7[8:1],,4,,3,,2^5[8:1],,,,8,,7,,6,,
53,,31,,17,,57,,4,5,4,5,4,5,4,5,
2h[16:3],,,4,3,,4,,6,5,6,,47,,3,,
2h[16:3],,,4,2,,4,,7,6,7,,48,,3,,
2h[16:3],,,4,1,,4,,8,7,8,,46,,3,,
2h[16:3],,,4,35,,46,,5,,6,,3,,4,,
7h[16:3],,,5,6,,5,,3,4,3,,52,,6,,
7h[16:3],,,5,7,,5,,2,3,2,,51,,6,,
7h[16:3],,,5,8,,5,,1,2,1,,53,,6,,
71,,13,,35,,57,,1,8,1,8,1,8,1,8,
2b,7,1,8,2,7,1,8,2,7,1,8,2,7,1,8,
3b,4,2,5,3,4,2,5,1b,8,5,7,1b,8,2,4,
8b,6,1,7,8,6,1,7,8,6,1,7,8,6,1,7,
4b,5,3,6,4,5,3,6,2b,8,3,1,2,8,3,1,
2b,7,1,8,2,7,1,8,2,7,1,8,2,7,1,8,
3b,1,2,8,1,7,2b,4,3,5,4,6,1b,8,2,7,
5b,6,4,5,3,4,8b,7,1,8,2,1,5b,6,4,7,
1b,8,1,8,2b,7,2,7,3b,6,3,6,
{32}
2b,1,8,7,6,5,4,3,
{16}
7b,2,8,1,7,2,8,1,7,2,8,1,7,2,8,1,
6b,5,7,4,6,5,7,4,8b,1,4,2,8b,1,7,5,
1b,3,8,2,1,3,8,2,1,3,8,2,1,3,8,2,
5b,4,6,3,5,4,6,3,7b,1,6,8,7,1,6,8,
7b,2,8,1,7,2,8,1,7,2,8,1,7,2,8,1,
6b,5,7,4,6,5,7,4,8b,1,4,2,8b,1,7,5,
7b,3,8,4,7,3,8,4,7,3,8,4,7,3,8,4,
6b,5,8,1,6,5,8,1,4,3,8,1,4,3,8,1,
7^4[2:1],,7,,,,,,,,,,,,,,
7^2[2:1],,7,,,,,,,,,,,,,,
3-8[2:1],,3,,,,,,,,,,,,,,
3-6[2:1],,3,,,,,,,,,,,,,,
8-5[2:1],,7-3[8:3],,,,,,,,,,,,,,
6-3[2:1],,4-8[8:3],,,,,,,,,,,,,,
2-5[2:1],,1-5[8:3],,,,,,,,,,,,,,
4-7[2:1],,8-4[8:3],,,,,,,,,,,,,,
3,4,3,4,2,5,2,5,1,6,1,6,8,7,8,7,
8,1,2,3,8,7,6,5,1,2,3,4,7,6,5,4,
2,1,2,1,3,8,3,8,4,7,4,7,5,6,5,6,
5,4,3,2,5,6,7,8,4,3,2,1,6,7,8,1,
3,5,3,5,2,4,2,4,1,3,1,3,8,2,8,2,
8,7,6,5,4,3,2,1,6,7,8,1,2,3,4,5,
6,4,6,4,7,5,7,5,8,6,8,6,1,7,1,7,
1,,,,7,,,,5,,,,3,,8,1,
2b/7b,,,,,,,,,,,,,,,,
,,,,,,,,5-8[8:1]/4-1[8:1],,,,,,,,
2b,5,3,6,2,5,3,6,1b,8,2,7,1,8,2,7,
4b,7,5,8,4,7,5,8,2b,1,3,7,2b,1,4,8,
3b,5,8,7,3,5,8,7,2b,4,3,7b,5,6,1b,8,
4b,6,2,1,4,6,2,1,5b,6,4,7,3b,4,2,5,
8b,7,2,5,8,7,2,5,1b,3,2,6b,4,5,8b,7,
4b,8,5,1,3b,7,4,8,2b,6,3,7,1b,5,2,6,
8b,7,1,6,2,1,3,8,2b,4,3,8b,6,7,4b,5,
8b,6,1,7,2,8,3,1,2b,7,2,7,
{32}
3b,4,5,6,7,8,1,2,
{16}
7b,4,6,3,7,4,6,3,8b,1,7,2,8,1,7,2,
6b,5,8,3,7b,2,5,4,6b,1,4,3,7b,2,5,4,
3b/6b,,,,1,1,8,8,
{32}
1b,2,3,,,,1b,2,3,,,,1b,2,3,,
6b,5,4,,,,6b,5,4,,,,6b,5,4,,
{48}
8b,1,2,3,,,,,,8b,1,2,3,,,,,,8b,1,2,3,,,
{16}
6b,4,7,3,6,4,7,3,1b,2,8,3,1,2,8,3,
6b,4,7,8,5b,3,1,2,6b,5,8,2,4b,3,7,1,
6b,4,8,2,5,3,7,1,6,4,8,2,5,3,7,1,
{32}
5b,6,7,8,1,2,3,4,5,6,7,8,1,2,3,4,
{48}
1b,8,7,6,5,4,3,2,1,8,7,6,5,4,3,2,1,8,7,6,5,4,3,2,
{16}
1-5[1:1],,,,,,,,,,,,,,,,
1-5[1:1],,,,,,,,,,,,,,,,
1-5[1:1],,,,,,,,,,,,,,,,
1-5[1:1],,,,,,,,,,,,,,,,
6-3[1:1],,,,,,,,,,,,,,,,
8-4[1:1],,,,,,,,,,,,,,,,
2-7[1:1],,,,,,,,,,,,,,,,
4-8[1:1],,,,,,,,,,,,,,,,
1,,2,,3,,4h[8:5],,,,,,,,,,
1,,8,,7,,6h[8:5],,,,,,,,,,
2,,3,,4,,5h[8:5],,,,,,,,,,
8,,1,,2h[8:5],,3h[8:5],,,,,,,,,,
8,,7,,6,,5h[8:5],,,,,,,,,,
8,,1,,2,,3h[8:5],,,,,,,,,,
{32}
2,1-4[32:63],8-5[32:62],7b,,,,,,,,,,,,,
,,,,,,,,,,,,,,,,
{16}
,,,,,,,,,,,,,,,,
,,,,,,,,,,,,,,,,
E
