&title=Sympathy
&artist=Leo/need;初音ミク;Eve
&first=0
&des=Yuzukeai
&lv_5=13
&inote_5=(184)
{1},,
{16}4h[4:6]/5,,,,,,,,,,,,,,5h[8:7],,
{16},,,,,,,,,,,,3,,4,,
{16}6h[4:6]/5,,,,,,,,,,,,,,4h[8:7],,
{16},,,,,,,,,,,,7,,6,,
{16}3h[2:3]/5,,,,,,,,,,,,,,5h[1:1],,
{16},,,,,,,,,,,,2,,3,,
{16}64,,7,,8,,1h[4:1],,,,2h[4:1],,,,3h[8:5],,
{16},,,,6h[4:1],,,,,,18,,2-6[8:1]/6,,,,
{16}7h[4:1],,,,5,,8-4[8:1],,,,3,,3,,7-4[8:1],,
{16},,2,,2h[4:1],,,,6-4[8:1],,,,16,,,,
{16}2h[4:1],,,,4,,5/3-5[8:1],,,,6,,6,,2-5[8:1],,
{16},,7,,7h[4:1],,,,1-5[8:1],,,,1/7-3[8:1],,,,
{16}2h[4:1],,,,1,,4/8-4[8:1],,,,3,,3,,7-4[8:1],,
{16},,2,,2h[4:1],,,,6-4[8:1],,,,2-6[8:1]/6,,,,
{16}7h[4:1],,,,8,,5/1-5[8:1],,,,6,,6,,2-5[8:1],,
{16},,7,,7p4[8:4],,,,3b,,,,,,,,
{16}2h[4:3],,,,B3,,B4,,,,,,,,,,
{16}7h[4:3],,,,B6,,B5,,,,,,,,,,
{16}3h[4:3],,,,B3,,B4,,,,,,,,,,
{16}6h[4:3],,,,B6,,B5,,,,,,3,,4,,
2h[4:1],,,,6,,5,,7h[4:1],,,,4,,5,,3,,3h[4:1]/4,,,,6,,5/6h[4:1],,,,4,,35,,2,,,,5,,6,,75,,75,,4qq5[4:3],,3b/5b,,,,,,,,,,,,,,7h[32:1],,,,
5/6-8[8:1],,,,3h[4:1],,,,,,,,7,,,,
4/3-1[8:1],,,,6h[4:1],,,,,,,,2,,,,
56,,,,8,,8-4[16:3],,,,4,,,,2<3[8:5]*pp3[8:5],,
,,,,,,,,,,,,,,,,
2-4[8:1],,,,5,,5,,,,6,,4,,7-5[8:1],,
,,4,,4,,,,3,,3,,24,,,,1-5[8:1],,,,16,,8-4[8:1],,,,8,,2,,6^1[8:1]/2^5[8:1],,,,,,,,,,15,,,,37,,,,
{1}1bv4-1[4:13]*v6-1[4:13],,,,
{16}3,,4,,5,,6h[8:3],,4-1[8:1],,,,,,,,
73,,6,,5,,4,,6,,3-8[8:1],5,3,,4b,,,,,,15,,15,,15,,15,,15,,
{32}1xs5[4:1]/5x,2x/6x,3x/7x,,
{16},,,,,,,,7h[8:3],,,,,,
{24}2b,1x,8x,
7x,6x,5x,4x,3x,2x,
1xw5[8:1],,,,,,,,,,,,
{16},,3V15[4:1],,4,,5-8[8:1],,,,7h[4:1],,,,1-5[8:1],,26,,1,,,,7-4[8:1],,63,,7,,,,2-5[8:1],,36,,2,,,,7h[8:1],,8,1,2,3,8,7,6,5,24,,2-6[8:1],,,,62,,8-5[8:1],,,,3,,2-6[8:1],,1,,82,,,,7,,7-4[8:1],,,,78,,1,,2V83[8:3],,,,
4-7[8:1]/2,,,,4,,,,4-1[8:1]/8,,,,6h[4:1],,,,2,,37,,4/8-4[8:1],,,,3,,3h[4:1],,,,{24}7b,8x,1x,
2x,3x,4x,5x,6x,7x,
8w4[8:1],,,,,,,,,,,,
{16},,6V84[4:1],,5,,4-1[8:1],,,,2h[4:1],,,,8,,7V16[8:3]/4,,,,
5-2[8:1]/7,,,,5w1[8:1],,,,5,,,,73,,6h[4:1]/4,,,,2h[8:1],,8,7,6,5,8,1,2,3,1,8,7,6,5/4-7[8:1],,,,24,,,,4-1[8:1],,4,,46,,,,5-8[8:1],,,,53,,,,5-1[8:1],,5,,5/7-5[8:1],,,,
7/8-4[8:1],,,,8/1>8[8:3],,,,1/5h[2:1],,,,,,,,2hx[4:3],,,,,,,,7hx[4:1],,,,,,,,
3b-7[8:1],,,,5,,6b-2[8:1],,,,5,,4bh[4:1],,,,,,35,,6,4,,3,5,,4-1[8:1],,4,,5,,
6b-2[8:1],,,,4,,3b-7[8:1],,,,4-6-2-8[8:12],,5b-3-7-1b[8:11],,,,,,,,,,,,,,,,,,,,,,,,,,,,,,
81,,7-3[8:1]/3,,,,
{16}2h[4:1],,,,4,,1-5[8:1]/5,,,,6,,6,,2-5[8:1],,
{16},,7,,7h[4:1],,,,3-5[8:1],,,,83,,,,
{16}7h[4:1],,,,5,,4/6-4[8:1],,,,3,,3,,7-4[8:1],,
{16},,2,,2h[4:1],,,,8-4[8:1],,,,8/2-6[8:1],,,,
{16}7h[4:1],,,,8,,5/1-5[8:1],,,,6,,6,,2-5[8:1],,
{16},,7,,7h[4:1],,,,3-5[8:1],,,,7-3[8:1]/3,,,,
{16}2h[4:1],,,,1,,4/8-4[8:1],,,,2pp3[4:1],,,,6pp7[4:1],,
{16},,,,2xh[8:3],,,,,,5,,3/6v1-6[4:9],,4bv1-4[8:17]/7b,,
,,,,,,,,,,,,,,,,,,,,,,,,,,,,,,,,,,,,,,,,,,,,,,,,
E
