&title=思想犯
&artist=ヨルシカ
&first=0
&lv_5=13
&des_5=软糖酱
&inote_5=
(200){4},{8},,,,,,6,
5,4,3,,,,,6,
5,4,3,E8,E2,B6,B3,
6,5,4,3,,,,,6,
5,4,5,{2}3,
{8}3,4,5,6,,,,,3,
4,5,6,E2,E8,B3,B6,
3,4,5,6,,,{4}8-4[8:1],
{2}3b,5h[8:1]/4h[8:1],
{8}2,5,{16}3,4,{8}3,6,3,{16}5,4,{8}5,
3<6[8:1],,,7,{16}1,8,{8}2,7,3,
5-1[8:1],4,4,4,8-4[8:1],1,1,1,
2,8,3,7,{2}4h[8:1]/6xh[8:1],
{8}7,4,{16}6,5,{8}6,3,6,{16}4,5,{8}4,
6>3[8:1],,,2,{16}8,1,{8}7,2,6,
4>1[8:1],5,4,7<4[8:1],8,7,1,8,
2,5,{4}4,{16}5,4,5,4,5,4,5,4,
{4}6bx-4[8:1],4,{8}3,3,{4}2-8[8:1],
4q7[4:1],{8}2,3,,4,6,4,
5,5,1,1,8,3,7,4,
{2}5x/6h[2:1],{8}5-7[8:1],5,4,3,
{4}2xpp5[8:3],5,{8}7,7,8xh[4:1],3h[8:3],
,,5,3,4,2,{4}3V14[4:1]*pp4[4:1],
{8}3x,,,1/6,,7,8,7,
4,6,{16}B5,B4,{8}E4,1,2,{4}1,
{8}3,4,{4}2<7[8:1],{2}6>3[8:1],
{4}2V48[4:1]/6V84[4:1],2/6,{8},3,7,2,
5,4,7,2,6,1-5[8:1],5,1w5[8:1],
,1,,,,,,4,
7,5,2,4,{4}5h[4:1],4,
6h[4:3],3,3,{8}3,5h[4:5],
{4}4,4,4,4,
{8}4,3xv4[8:1],,,,,5,2,
3/4,4/3,,E1/B1/E8/B7/B8f,,,,,{4}E1/B8/B1/E2/B2,
{8}5/6,6/5,,,,,5/3,
8w4[8:1],,8,,,,,5/6,
5/6,,,4/3,4/3,{4}5x/2x<7>2[4:1],
{8},,,5>1b[8:1]*<1b[8:1],,,,,{4}2/8,
{8}4/5,7b/1b,,,{4}7-4[8:1],
{8}1b/7p4[2:1],,,3,,,{4}2q4[2:1],
,6,8,{8}7,3,
{4}5/4,{8}1/8,1,2/7,7,6/3,3,
{4}5b/4b-7[8:1],4-1[8:1],4-8[8:1],4,
{16}7x/1,6x,{8}5xh[8:1],{4}C,{16}2x/8,3x,{8}4xh[8:1],{4}C,
{16}8/7x,6x,{8}5xh[8:1],{4}C,{16}2x/1,3x,{8}4xh[8:1],{4}C,
{16}8/7x>1[4:1]*>3[2:1]*>2b[8:3]*>4b[8:5],6x,{8}5xh[8:7],{4}A7f,,,,7/8,
1/2,3/4,
{16}6x/1,5x,{8}4x,{4}8,{16}3x/8,4x,{8}5x,{4}1,
{16}7x/4,6x,{8}5x,{4}8,{16}2x/5,3x,{8}4x,{4}1-7[8:1],
1-3[8:1],1-6[8:1],1-4[8:1],1-5[8:1],
1,{16}2b,3x,{8}4x,{16}7b,6x,{8}5x,{16}2b<6b[4:1],3x,{8}4x,
{4}A2f,5,{8}4,5,{4}3>8[8:1],
4/3,4,{8}5,4,{4}6<1[8:1],
5/6,5,{8}4-1[8:1],8x,{4}4,
,5-8[8:1],5-2[8:1],5-1[8:1],
{2}5,{4}3/7-4[8:1],1/7,
6/2-5[8:1],8/2,B1/B2/A2/D2/A1/E2f,B8/B7/A7/D8/A8/E8f,
,,,2/7h[2:1],
,8,3/1,2/4-8[8:1],
{2}5,{4}7/8,6h[4:1],
{1}2bq5[4:3],
{4},,,,,,,,,,,,,,,,5h[4:1],
4,6,{12}3,,3,
{4}4,4h[4:1],2,{12}5,,5,
{4}4,6h[4:1],{6}E2,{12}B3,B4,{24},{8}7x/C,
,,{4}6,4,5,
3,4,{6}3,{12}7,8,,7,
{6}8,{12}7,5,,,{4}4,5,
4-2[4:1],4,7-5[4:1],7,
8V24[2:1],4,6b,{12}8,,2,
{4}1,4,6/5,{12}7,,1,
{4}8,2,4/3,{12}5,,1,
{4}8,5,7/6,4,
5/6,1,4/3,1q3[4:3],
,,,7p4[1:1],
,,,,{1}C,
{4},6/8b,3b/1,5b/7,
{16}2x/8,3x,{8}4xh[8:1],{4}C,{16}7x/1,6x,{8}5xh[8:1],{4}C,
{16}1/2x,3x,{8}4xh[8:1],{4}C,{16}7x/8,6x,{8}5xh[8:1],{4}C,
{16}1/2x<8[4:1]*<6[2:1]*<7b[8:3]*<5b[8:5],3x,{8}4xh[8:7],{4}A2f,,,,2/1,
8/7,6/5,
{16}3x/8,4x,{8}5x,{4}1,{16}6x/1,5x,{8}4x,{4}8,
{16}2x/5,3x,{8}4x,{4}1,{16}7x/4,6x,{8}5x,{4}8,
{16}1x,5,4,5,4x,5,4,5,2x,5,4,5,4x,5,4,5,
{4}3b,6<3[4:1],3>6[4:1],4,
5-1[8:1],5x/4>2[8:1],{8}4,5,{4}7<5[8:1],
7/8,1,{8}5,4,{16}7b,6x,{8}5x,
{16}2b,3x,{8}4x,{4}1bpp4[2:1],,4xpp7[2:1],
,1,3,8-4[4:1],
8h[4:1],,,2<7[4:1],
7pp2[2:1],6,{2}5h[4:1],
{4},,,2-7[8:1]/8-5[8:1],
,6/8,6/4-8[8:1],3b/4x,
{8}2/1,2,2/3,2,8/7,7,7/6,7,
{2}8b/1b,{8}5h[8:1],4,,,5,
4,{16}6,5,{8}7,4,5,{16}3,4,{8}2,
7-5[8:1],,,2,{16}8,1,{8}8,3,6,
4-8[8:1],5,5,5,1-5[8:1],8,8,8,
7,4,6,5,4h[8:1],5,,,4,
5,{16}3,4,{8}2,5,4,{16}6,5,{8}7,
2-4[8:1],,,7,5,6,4,5,
3,6,4,7,5,6,2,4,
3,8,6,7,1,3,2,B2/E3/B3,
E
