&title=Liberation
&artist=石川贵之
&first=0
&des_1=AMH
&des_2=AMH
&des_3=AMH
&des_4=AMH
&des_5=AMH
&lv_5=13.9
&des_6=AMH
&des_7=AMH
&des=AMH
&inote_5=(150){1},{8}3h[4:3],{4},,,{16}5,4,
{8}6h[4:3],{4},,,{16}3,5,
{8}2h[4:3],{4},,,{16}6,4,
{4}7h[4:3],1,2,3,
{1}4h[4:3]/6pp1[2:1],
8h[4:3]/2pp5b[2:1],
4h[4:3]/8p5[2:1],
{2}7h[4:1]/2-5[8:1],3h[4:1]/6-1b[8:1],
{1}4b<6-3[2:1]/8>2-7b[2:1],
2-5>3b[2:1]/6b-1<7[2:1],
{64}2bq6-4>8q4[4:5],6q2-8<4q8b[4:5],{2},,,{16},,,{32},{4}7x/3x,
{16}6,4,6,4,6,4,6,4,6,4,6,4,6,4,6,4,
5,3,5,3,5,3,5,3,5,3,5,3,5,3,5,3,
6,2,6,2,6,2,6,2,6,2,6,2,6,2,6,2p6p2b[8:5],
{1}6bxh[4:3],
{8}7/4,{16}6,5,{8}6,{16}4,5,{8}4,{16}7,5,{8}7,4,
5/2,{16}3,4,{8}3,{16}5,4,{8}5,{16}2,4,{8}2,6,
7/4,{16}6,5,{8}7,{16}3,4,{8}2,{16}6,5,{8}8,1,
7/2,{16}3,6,{8}3,{16}5,4,{8}5,4/5,6/3,7/2,
1/8,{16}7,8,{8}7,{16}7,6,{8}7,{16}7,5,{8}7,6/4,
5/3,{16}3,4,{8}3,{16}3,2,{8}3,{16}3,1,{8}3,8,
7/1,{16}6,5,{8}7,{16}3,4,{8}2,{16}6,4,{8}8,2,
{2}4h[4:3]/8<2[8:1],{48}A1,D1,A8,D8,A7,D7,A6,D6,A5,D5,,D4,{4}A3f,
{8}7bx/1bx,{16}6,5,{8}7,{16}3,4,{8}2,{16}6,5,{8}8,1,
2/8,{16}3,4,{8}2,{16}6,5,{8}7,{16}3,4,{8}1,8,
1/7,{16}7,5,{8}6,{16}2,4,{8}3,{16}8,4,{8}6,2,
2/4,{16}3,4,{8}1,{16}6,5,{8}8,{16}3,5,{8}1,8,
7/5,{16}6,5,{8}6,{16}3,4,{8}3,{16}5,4,{8}5h[8:1],3,
2/6,{16}7,8,{8}7,{16}1,8,{8}1,{16}7,8,{8}6h[4:1],5pp1[8:5],
{1}4bh[4:3],
{8}1/8,{16}2,1,{8}2h[8:3],1h[4:1],{4},3/8x-4b[8:1],
{8}8/1,1,2,3,4,3h[4:1],,{16}5,5h[16:3],
{8}2,1h[8:1],5h[2:1],8,1,2,{4}3h[2:1],
{8}1,8,7,6,5/6h[8:3],4,3,2,
7/1h[8:3],6,5,4,{16}3/4,5,6,7,8/1,2,3,4,
{8}6x/5xh[4:1],7,8,2/1h[4:1],3,4h[4:1],,{16}6,6,
{8}3h[4:3],5,4,2,1,8,{4}7h[4:1],
{8}3h[4:1],4,6h[4:1],5,2h[4:1],1,7h[8:3],8,
5,3,8x/1xh[4:1],7,{24}6x,5x,4x,3x,2x,1x,{4}4x/8bx-4b[8:1],
8/2-5[8:1],{8}2/7-1[8:1],6,7/4-8[8:1],3,6-1[8:1],{16}5,5,
{4}6/2h[4:1],{8}8-4[8:1],7,8/3-1[8:1],2,3/5v2[16:1],{16}6,6,
{8}5x/4x,1,8-3[8:1],7,6x/8x,7,8-5[8:1],1,
8x/2x>5[8:1],1,2x/8x<5[8:1],1,{16}8x/4x,3,2,1,8,7,6,5,
{4}4b/8b-4[8:1],{8}8/2-5b[8:1],3,2/6-8[8:1],7,4/6-4[8:1],{16}3,3,
{8}6/2-4[8:1],1,2/7-4b[8:1],8,7/3-8[8:1],2,3/6-1b[8:1],5,
6/3>8[8:1],4,3/7<4b[8:1],6,7/1-5[8:1],2,1/8w4b[8:1],6,
{1}Cf/8qq4[2:1]*pp4[2:1],
{64}4bx>4V28b[4:11],8xV64>8V64[4:11],{1},,,{16},,,{32},{4}A8/B8/E8,
A3/B3/E4,E6/D6/A6f,
{16}2,5,2,5,3,4,3,4,2,5,3,4,2,5,3,4,
1,6,1,6,8,7,8,7,1,6,8,7,1,6,8,7,
1,6,2,5,3,4,3,4,2,5,1,6,2,7,3,8p5>6[8:5],
{1}4h[4:3],
{4}7/3,{16}6bx,4,5,5,6bx,4,5,5,6bx,4,7bx,3,
{4}8bxh[1:1],D4/E4/A3,B7/A7/D7/E7,{8}5x,5x,
{4}B2/E3/A2f,{16}7,4,6,5,7,4,6,5,7,4,6,5,
{4}8h[4:1],{32}1x/E2,E3,{16}E4,,,{32}6x/E7,E8,{16}E1,,,{32}5x/E5,E4,{16}E3,{8},5/3,
3/5,{16}4,5,3,6,{4}2h[4:1],{16}8,7,6,5,
4/3,2,1,8,5,6,7,8,5/1,4,3,2,1/8,7,6,5,
{4}4/3h[4:1],{16}5,3,4,3,6,4,5,4,7,5,6,5,
{4}7h[4:1],1-5[8:1],1>4[8:1]*<6[8:1],1b,
{8}4x/6x,{16}6,5,{8}7,8,{16}2,1,3,4,{32}2bx,B2,C,B6,{8}A6,
5x/7x,{16}3,4,{8}2,1,{16}7,8,6,5,{32}7bx,B7,C,B3,{8}A3,
4x/2x,{16}7,8,{8}6,5,{16}3,4,2,1,{32}3bx,B3,C,B7,{8}A7,
6x/8x,{16}2,1,{8}3,4,{16}6,5,7,8,{32}6bx,B6,Cf,B2,{8}A2,
3x/1x,{16}3,4,{8}3,5,{16}7,3,5,1,{32}7bx,B7,C,B3,{8}A3,
2x/4x,{16}2,1,{8}2,3,{16}2,6,4,8,{32}2bx,B2,C,B6,{8}A6,
7x/5x,{16}7,5,{8}6,2,{16}8,4,6,2,{32}8bx,B8,C,B4,{8}A4,
{32}1,2,3,4,5,6,7,8,1,2,3,4,5,6,7,8,{4}1-5[8:1]*-6[8:1],1b/Cf,
{8}5x/4x,{16}6,5,{8}7x,6x,{16}6,5,7>1[8:1],4,{4}6x,
{8}2x,{16}2,4,{8}3x,2x,{16}2,5,3>8b[8:1],4,{4}2x,
{8}5x,{16}6,5,{8}6x,4x/7x,{16}7,5,6<1[8:1],5,{4}7x,
{8}2x,{16}2,1,{8}3x,3x,{16}3,4,2<8b[8:1],4,{4}3bx,
{8}5,5h,4/6,6h/4h,3/7,7h/3h,2/8,2h/8h,
8,8h,1/7,7h/1h,2/6,6h/2h,3/5,3h/5h,
{16}5b,4,5,4,6,3,6,3,7,2,7,2,{32}8x,A7,6x,A5,4x,A3,2x,A1f,
{1}8bx-4-8b[1:2],
E
