&title=Terrasphere
&artist=Plum
&first=0
&des=L.R.C.
&lv_5=13
&inote_5=(160){4},,,,,
{8},6,5,4,3,2,1bqq4[4:3]/7,,{4},,,7qq1[4:3],,,
{8}2,3,4qq8[4:3],,{4},,,6pp5[4:3],,{8}4,3,2,1,8pp3[4:3],,{4},,,6q8[4:3],,
{8}1,2,3,4,5qq1[4:3],,{4},,,8<5[4:1],,2>5[4:1],,
{8}7b-5[32:3],,3/7,,2>5[8:1],5,2/6,,6<8[32:3],,5/6,,3>8[8:1],4,3/5,,
6>4[32:3],,6/8,,2<8[32:3],3,2/4,,4<7[8:1],,3/4,,2>5[8:1],1,2/8,,
7<5[32:3],,7/8,,7/8-4[8:1],1,2/8,,3>1[32:3],,3/4,,3/4-8[8:1],5,6/4,,
7-1[32:3],,5/7,,5-1[8:1]/7,4,3/5,,
2-4[32:3],,2/6,7,8,{16}3,7,2,6,1,5,8bpp4[4:3],,{8},,,,,
6,7,8<5[4:1],,5>2[4:1],,2<7[4:1],,7<4[4:1],,3h[8:1],,,
3,3,5,5h[4:1],,3qq7[2:1],,6,5,4h[4:1],,,,
5/6,,4/7,,4/7,6,5,4,3/4h[4:1],,3,2,4,5,3,4,5h[4:1],,4,3h[8:1],
5,6,4,5/6,5h[4:1]/6h[4:1],,,,
{16}6,5,4,3,2,1,8,7,2/6b-1[8:1],,
{8},3,4,5>2[8:1],1,8,7,6-3[8:1],,7-2[8:1],,8>5[4:1],,,,
2v7[4:1],,7>3[4:1],,5,6,7,8,1/5>2[4:1],,2<7[4:1],7,5h[4:1],,,,
3/4,,1>4[8:1]/5,,1/5V73[4:1],7,1<6[8:1]/5,2,1,,
4,5,6-4[8:1],4-8[8:1],6,3,2>6[4:1],,6<2[4:1],7,4,5,6,7V15[2:1],7b-3[8:3],,,,,,,
{16}3,4,2,,8/1,,8/7,,6-8[32:3]/5-8[8:1],,,,5/6,,,,
7,8,6,,4/5,,3/4,,2-4[32:3]/1-5[8:1],,,,2/1,,,,
{8}3,4/5,7,5/6,4-8[8:1]/7-5[8:1],,,,{16}6,8,6,,{8}1/7,2/8,1-5[8:1]/3-8[8:1],,,,,
1-4[8:1],4-7[8:1],1,5-8[8:1],,5>2[8:1],,5/6,,
{16}6,7,8,,1-5[8:1],,2-4[32:3],,1<6[8:1],,2,,1,,2,,3,,4,,5h[4:1],,,,,,,,
3,4,2,,{8}3/4,4/5,5h[8:1]/6h[8:1],,
{16}7,5,6,4,5,3,4b-8[8:1],,{8}2-5[8:1],4,2<7[8:1],,2/5,,
{16}6,5,7-5[8:1],,{8}4-8[8:1],7,4<7[8:1]*>1[8:1],,4,,
8-4[8:1],4V62[4:1],8,3,3h[4:1],,,,
{16}3,4,2>5[8:1],,6-2[8:1],,2,,6,,,,{8}5-3[32:3],1,5,,8-4[8:1],4,8,,
3-1[32:3],7,3,8-3[8:1],5,8,4-7[8:1],,4/6,,5,5h[4:1],,4,,6,3,4/5,,
5/6,1,3/4,8,5/6,{16}4,7,3,6,2,5,1b>1[4:7],,,,{8},,
7h[4:1],,,,6h[4:1],,,,5h[4:1],,,,4<4[4:7],,,,
2h[4:1],,,,1h[4:1],,,,8h[4:1],,,,
7<3[2:1],,,,3>7[2:1],,,,7<3[2:1],,,,3>7[2:1],,,,
6h[8:1],,5h[8:1],,4h[8:1],,3h[8:1],,2>2[2:1]*<2[2:1],,,,,,,,
{16}2-5[8:1]/5,,3,4,2<7[8:1],,8,,2V48[4:1],,4,,
2/6>3[8:1],,7,,6,,1-5[8:1],,2q4[4:1],,1,,2,,6,,6,,7,,
7-4[8:1],,6,5,7>2[8:1],,1,,7-3[8:1],,5,,
2-6[8:1]/7,,1-7[32:3],,2-4[32:3],,1-5[8:1],,2qq6[4:1],,1,,2b,,,,
7,,7,,8-4[8:1],,6,5,8>3[8:1],,1,,6/8<5[8:1],,7,,2/8,,1,,
8-2[32:3],,8-6[32:3],,8-4[8:1],,{8},,5,6,7,8h[2:1],,3,3h[8:1],,
1/2,3/8,2/6,4qq5[4:1]/5,,4/5<4[3:1],,,,,,,3b/4,5/6b,2b/3,6/7b,1b/8b,2b/7b,3b/6b,
{16}2b,6,2,6,2,6,3b,4,3,4,3,4,1b,5,1,5,1,5,2b,4,2,4,2,4,
3b,5,3,5,2b,6,2,6,{24}1b,8,7,6,5,4,3,2,1,5b,6,7,8,1,2,3,4,5,1b,8,7,6,5,4,
{16}3/8b-4[8:1],,6b>3[8:1],,8b,,6b,,,,2,,3b/4b,,5h[8:1],,
8b,7,8,7,8,7,1b,5,1,5,2b,4,3,5,4,6,8b,7,1,6,2,5,3b,4,3,4,
3b,5,4,6,5,7,6b,8,5,7,4,6,3b,5,3,5,2b,4,2,4,
3,5,{16}1b,,7b/8,,2/3b,,5/6b,,4b/5b,,1b/8b,,2b/7b,,3b/6b,,
4b,7,4,7,4,7,5b,6,5,6,5,6,3b,7,3,7,3,7,4b,6,4,6,4,6,3b,5,3,5,2b,6,2,6,
{32}1b,2,3,4,5,6,7,8,1,2,3,4,5/8b,7,6,5,4,3,2,1,8,7,6,5,1b/4,2,3,4,5,6,7,8,
{16}1/5b-1[8:1],,7b<3[32:5],,5b,,7b,,,,
2,,1b/8b,,7,,1b,7,1,7,1,7,2b,6,2,6,3b,5,2,6,1,7,2b,1,3,8,4,7,5b,6,
4,5,3b,4,2,5,1,6,2b,5,3,4,1,6,8b,7,2,5,1b,6,3,7,2,6,
1b,5,2b,6,3b,7,4b,8,3b,7,2b,6,1b,5,8b,4qq7[16:37],7b>6[4:9],,,,{4},,,,,,,,,,
{8}8,7,6-2[4:1],,2V84[2:1],,8,,4qq7[1:2]*pp1[1:2],,{1},,,
{8}1>4[4:1],,,,7<4[4:1],,,,
2bqq5[4:3],,{4},,,7qq1[4:3],,,
{8}2,3,4qq8[4:3],,{4},,,6pp5[4:3],,{8}4,3,2,1,8pp3[4:3],,{4},,,6q8[4:3],,
{8}1,2,3,4,5pp7[2:1]*qq3[2:1],,,,,,,,3qq4[4:3]`6pp5[4:3],
