&title=ディスコミュ星人
&artist=ナナヲアカリ
&first=0.92
&des=MiraT
&lv_5=12+
&inote_5=(170)
{4}4,45,5,45,
{4}4,45,5,45,
{4}4,35,5,46,
{4}4,35,5,{16}46,,4,5,
{4}4h[2:1],7,5h[2:1],2,
{4}3h[2:1],8,6h[2:1],1,
{4}2-6[8:1],26,{16}48,,7,5,6,,3,,
{4}4xh[4:3]/E8,B8,B1,E2,
{16}5/6-8[8:1],,,5,6,,4,,5/6-8[8:1],,,5,6,,4,,
{16}5/6-8[8:1],,,5,6,,4,,4h[16:3]/5h[16:3],,,,45,,45,,
{16}4/3-1[8:1],,,4,3,,5,,4/3-1[8:1],,,4,3,,5,,
{16}4/3-1[8:1],,,4,3,,5,,27,,3,,45,,6,,
{16}5/6-8[8:1],,,5,6,,4,,5/6-8[8:1],,,5,6,,4,,
{16}5/6-8[8:1],,,5,6,,4,,45,,2,,45,,7,,
{8}38,16,,5-1[8:1]/4-8[8:1],,45,,27,
{8}4h[2:1]/5h[2:1],,,,,{24}4x,5x,4x,5x,,,,,,
{8}6h[8:7],1,1,2,2,3,4,3,
{8},7,,48,8-5[8:1]/4-1[8:1],,,,,
{16}7,8,{8}6-1[8:1],6,2-5[8:1],2,7,7,
{8}8<5[8:1],,8>3[8:1],,8-4[8:1],,8b,,
{8}3h[8:7],8,8,7,7,6,5,6,
{8},1,,27,2p4[8:1]/7q5[8:1],,,,
{16},,8,1,{8}7-4[8:1],7,2-5[8:1],2,6,7,8q1[4:1],,1>8[4:1],,,,1b,,
{8}27,1-5[8:1],6-8[8:1],1,6,3,2,14,
{8},6,7,8z4[4:1],1,2,3,,,
{8}6,75,3,24,5,45,
{8},8-4[8:1],,8w4[8:1],,8,,8b,,
{8}72,8-4[8:1],3-1[8:1],8,3,6,6,,
{8}1>5[4:1],,5>1[4:1],,1,8,7,6,,
{8}3,5,1,6,4,{16}8x,7x,6x,5x,
{8}3x/4x,2,1x/8x,7,6x/5x,,18,27,
{8}3>4[4:13]/6,,,E7,E3,,,E1,
{8},E5,,C,B7/B6/B2/B3,,,,
{8}Ch[2:3],,,,,,,,
{8},,,,,,{16}1,8,1,8,
{8}3-8[8:1],7,6,7,3-8[8:1],6,5,6,
{8}6-1[8:1],2,3,2,6-1[8:1],3,4,3,
{8}35,2,46,7,35,1,46,8,
{8}27,27,27,27,27,{16}3x,5x,4x,,,,
{8}1-5[8:1]/8-6[8:1],,8-4[8:1]/1-3[8:1],,18,,7>2[8:1],7,
{8},4-8[8:1],4,,6h[4:1],,,,
{8}5-1[8:1]/4-2[8:1],,4-8[8:1]/5-7[8:1],,54,,2,2pp5[8:3],
{8},8,8,7,6,,{16}8,1,8,1,
{4}8<5[4:1],5>2[4:1],2<7[4:1],7<4[4:1],
{4}4>1[4:1],1<6[4:1],3h[4:1],,
{4}45,B2/B3/B6/B7/Cf,18,B2/B3/B6/B7/Cf,
{4}1b-4[8:1],7/1b-6[8:1],1b/3,{8}4,5,
{8}3-6[8:1]/7-2[8:1],,7-4[8:1]/3-8[8:1],,73,,2,2qq8[4:1],
{8},8>5[8:3],,6,6h[4:1],,,,
{8}8<4[4:1],,4>8[4:1],,8,,2,2h[8:5],
{8},6,7,8,1,,{16}1,8,1,8,
{4}1>4[4:1],4<7[4:1],7>2[4:1],2>5[4:1],
{4}5<8[4:1],8>3[4:1],6h[4:1],,
{4}4-8[8:1],{16}4x/6x/Cf,,,,5-1[8:1],,,,5x/3x/Cf,,,,
{4}2b-6[8:1],2/7b-3[8:1],7/2b,{8}18,2b/7b,
{8},45,6,68,6,61,6,62,
{8}3h[4:1],4,6h[4:1],5,2h[2:1],1,8h[4:1],,
{8},45,3,31,3,38,3,37,
{8}3h[8:1],1h[8:1],7h[8:1],5h[8:3],4h[4:1],,,,
{8}16,8-4[8:1],7-3[8:1],8,7,1,81,27,
{8},1-5[8:1],2-6[8:1],1,2,8,18,27,
{16}3<6[8:1],,,6,3,,8,,28,,17,,45,,,,
{4}7/B4/E4,2/E6/B5,18,2b/7b,
{16}5/6-8[8:1],,,5,6,,4,,5/6-8[8:1],,,5,6,,4,,
{16}5/6-8[8:1],,,5,6,,4,,4h[16:3]/5h[16:3],,,,45,,45,,
{16}4/3-1[8:1],,,4,3,,5,,4/3-1[8:1],,,4,3,,5,,
{16}4/3-1[8:1],,,4,3,,5,,27,,3,,45,,6,,
{16}5/6-8[8:1],,,5,6,,4,,5/6-8[8:1],,,5,6,,4,,
{16}5/6-8[8:1],,,5,6,,4,,45,,2,,45,,7,,
{8}38,16,,5-1[8:1]/4-8[8:1],,45,,27,
{16}45,,,,,C,,,,,,,,,,,
