&title=Running In The Dark
&artist=MONKEY MAJIK
&first=0.11
&des=
&des_5=Originiums
&lv_5=13
&inote_5=(125){4},,,,,,5h[4:7],
4,
,4,,4,
,3,4h[4:7],5,
,5,,5,
,6,5pp4[8:5],4,
{8},,3,3-5[8:1],,,{4}7h[2:1],
,5,4qq5[8:5],6,
{8},,8,8-4[8:1],,,{4}2h[8:3],
{8},4,{16}3,5,{8}4,{4}7/5b>2[8:1],{8}8,7,
{4}1-5[8:1],6h[4:1],4,{8}5-3[8:1],2,
{4}1-5[8:1],8,7V53[4:1],3V16[4:1],
1,{8}4,4,5/4,6,7/5,3,
4/2,1,{16}7,4,{8}5,{4}2/4<7[8:1],{8}1,2,
{4}8-4[8:1],3h[4:1],6,{8}5-2[8:1],7,
{4}8-4[8:1],1,2V46[4:1],6V83[4:1],
8,{8}5,5,4/6,7,2/5,1,
3/7,1/5,{16}2,4,{8}3,{4}6<1[8:1],{8}5,4,
3<6[8:1],2,1,8,{4}7-4[8:1],{8}8,1,
2-7[8:1],3,4,5,{4}6-1[8:1],{8}3-7[8:1],4,
8-4[8:1],1,2-6[8:1],3,{4}7V52[4:1],2V47[4:1],
{2}1h[4:1],{4}2>5[8:1],{8}1,8,
7>2[8:1],6,5,4,{4}3-8[8:1],{8}7-3[8:1],6,
1-5[8:1],2,8,7-4[8:1],{4}4>8[4:1],8<4[4:1],
{8}3h[4:1],,,3,4/2,6,7/5,3/4,
2/5,6/5,4/8,2/6,{4}5/1b-5[8:1],{8}6-3[8:1]/1-3[8:1],7,
{4}1-6[8:1],{8}7-3[8:1]/1-4[8:1],8,{4}1-5[8:1],6x-2[8:1]/1x-7[8:1],
6x-3[8:1]/1x-4[8:1],1x/6x-1[8:1],{8}6-3[8:1],4,{4}6<1[8:1]/2>5[8:1],
2/6,{8}8/4,8/4,2/6,3,7/4,6,
5/2,3,{16}7,4,{8}6,3/5-2[8:1],4,7/5-8[8:1],6,
5-1[8:1],4,5/7-4[8:1],6,7/2-6[8:1],3,{4}2/8-4[8:1],
8>3[8:1]*<5[8:1],8,{8}3>5pp4[8:5],,,6,
{2}6xh[4:1],{8}6<4qq5b[8:5],,,3,
{2}3xh[4:1],{4}1-5[8:1],{8}1>4[8:1]/6-4[8:1],7,
{4}6<1[8:1],{8}2-4[8:1]/6-4[8:1],3,{4}2x-8[8:1]/6x-8[8:1],6x/2x-6[8:1],
{8}2x/8x-4-7[4:1],7,{4}8x/4x,{8}3,2,5/1<6[8:1],6,
5/1>4[8:1],4,1/5,7,6/5,2,5/3,7,
6/4,1,{16}7,4,{8}6,3/5-2[8:1],4,7/5-8[8:1],6,
5-1[8:1],4,5/7-4[8:1],6,7/2-6[8:1],3,{4}2/8-4[8:1],
8>3[8:1]*<5[8:1],8,{8}3q4<2[8:5],,,7,
{2}7xh[4:1],{8}6p5>7b[8:5],,,2,
{2}2xh[4:1],{8}5-1[8:1],5,4,3,
{4}2>5[8:1],8,{8}7-3[8:1],7,8,1,
{4}2>5[8:1],8,7V53[4:1],3V17[4:1],
7V53[4:1],3V17[4:1],{2}7<7b[2:1],
{8},,,,4-8[8:1],4,5,6,
{4}7<4[8:1],1,{8}2-6[8:1],2,1,8,
{4}7<4[8:1],1,2V46[4:1],6V82[4:1],
2V46[4:1],6V82[4:1],{2}2>3<4<5<6<7>8>1>2>3<4b[2:1],
E
